Завантажити та скачати торренти українською


Син Божий/ Son of God (2014) 720р Eng | sub Ukr

Нові коментарі

Нова тема   Відповісти
Останній раз роздавалося handriy (2016-07-28)
Автор Повідомлення
victorciornei 
Новенький


З нами з: 08.04.12
Востаннє: 20.10.16
Повідомлень: 8

2014-04-26 22:53  
Син Божий / Son of God (2014) 720р Eng | sub Ukr

Син Божий/ Son of God (2014) 720р Eng | sub Ukr


Жанр: Драма
Країна: США



Кінокомпанія: 20th Century Fox
Режисер: Крістофер Спенсер
Актори: Діого Моргадо; Себастьян Кнапп; Рома Дауні; Дарвін Шоу...

Сюжет:
Біблійний епічний фільм. Фільм розповідає історію біблійного Ісуса Христа від Народження, до Його вчення, Розп'яття і Вознесіння. Даний фільм буде набором компонентів мінісеріалу «Біблія», а також видалених сцен, не показаних під час телеефіру.
Субтитри власного перекладу.


Можливо незабаром буде в озвученні студії "Акорд+", але останнє слово за ними...

Тривалість: 02:44:26
Якість:
Відео:
кодек:
розмір кадру: 1 280 х 590
бітрейт: 2 144 кб/с

Аудіо:
мова: англійська
переклад: оригінал
кодек: 2.0
бітрейт: 165 кб/с

Субтитри:
мова: українська | Віктор Чорней (Акорд+)
тип: програмні (м'які)
формат: *.srt
Скріншоти






MediaInfo

General
Complete name : E:\Акорд Плюс\Son Of God 2014 720p HQ \Son Of God 2014 720p HQ .mp4
Format : MPEG-4
Format profile : Base Media
Codec ID : isom
File size : 2.65 GiB
Duration : 2h 44mn
Overall bit rate mode : Variable
Overall bit rate : 2 306 Kbps
Encoded date : UTC 1970-01-01 00:00:00
Tagged date : UTC 1970-01-01 00:00:00
Writing application : Lavf52.84.0

Video
ID : 1
Format : AVC
Format/Info : Advanced Video Codec
Format profile : [email protected]
Format settings, CABAC : Yes
Format settings, ReFrames : 5 frames
Format settings, GOP : M=4, N=13
Codec ID : avc1
Codec ID/Info : Advanced Video Coding
Duration : 2h 44mn
Bit rate : 2 144 Kbps
Width : 1 280 pixels
Height : 590 pixels
Display aspect ratio : 2.2:1
Frame rate mode : Constant
Frame rate : 24.000 fps
Color space : YUV
Chroma subsampling : 4:2:0
Bit depth : 8 bits
Scan type : Progressive
Bits/(Pixel*Frame) : 0.118
Stream size : 2.46 GiB (93%)
Writing library : core 110
Encoding settings : cabac=1 / ref=5 / deblock=1:0:0 / analyse=0x3:0x133 / me=hex / subme=8 / psy=1 / psy_rd=1.00:0.00 / mixed_ref=1 / me_range=16 / chroma_me=0 / trellis=1 / 8x8dct=1 / cqm=0 / deadzone=21,11 / fast_pskip=1 / chroma_qp_offset=-2 / threads=8 / sliced_threads=0 / nr=0 / decimate=1 / interlaced=0 / constrained_intra=0 / bframes=3 / b_pyramid=0 / b_adapt=0 / b_bias=0 / direct=3 / weightb=1 / open_gop=0 / weightp=0 / keyint=13 / keyint_min=7 / scenecut=0 / intra_refresh=0 / rc_lookahead=13 / rc=abr / mbtree=1 / bitrate=2144 / ratetol=1.0 / qcomp=0.00 / qpmin=10 / qpmax=51 / qpstep=4 / ip_ratio=1.41 / aq=1:1.00
Encoded date : UTC 1970-01-01 00:00:00
Tagged date : UTC 1970-01-01 00:00:00

Audio
ID : 2
Format :
Format/Info : Advanced Audio Codec
Format profile : LC
Codec ID : 40
Duration : 2h 44mn
Bit rate mode : Variable
Bit rate : 165 Kbps
Channel(s) : 2 channels
Channel positions : Front: L R
Sampling rate : 48.0 KHz
Compression mode : Lossy
Stream size : 195 MiB (7%)
Encoded date : UTC 1970-01-01 00:00:00
Tagged date : UTC 1970-01-01 00:00:00
Джерело: & akordplus.com.ua
Особиста оцінка: 9 - давно не бачив настільки якісне кіно


Золотий реліз (завантажене не впливає на рейтинг)
 Трекер:    Зареєстрований   

Завантажити / скачати фільм українською



відео для новачків



 Зареєстрований:   2014-04-29 21:28
 Розмір:   2.65 GB 
 Оцінка фільму:   8.9/10 (Голосів: 20)
   
Інші релізи
   Син Божий / Son of God (2014) AVC Ukr/Eng | Sub Eng tarasyk98  1 / 0   2.72 GB   2015-04-12 12:09 
   Син Божий / Son of God (2014) 720p Ukr/Eng | Sub Eng 11FrYkT  1 / 0   4.66 GB   2015-04-12 08:21 
   Син Божий / Son of God (2014) patriot2305  5 / 0   1.46 GB   2015-04-11 20:35 
Konfucius 
Управління
Управління


З нами з: 30.09.07
Востаннє: 04.12.16
Повідомлень: 4739

2014-04-30 19:36  
Добавте mediainfo і хоча б один скріншот з субтитрами.
Ваш часовий пояс: GMT + 2 Години

Нова тема   Відповісти