Завантажити та скачати торренти українською


Гаррі Поттер і келих вогню / Harry Potter and the Goblet of Fire (2005) 1080p 2xUkr/Eng | Sub Ukr/Eng

Нові коментарі

Нова тема   Відповісти
Автор Повідомлення
leroykendall 
Модератор HD


З нами з: 03.01.11
Востаннє: 20.11.16
Повідомлень: 749

2014-04-26 12:30  
Гаррі Поттер і келих вогню / Harry Potter and the Goblet of Fire (2005) 1080p 2xUkr/Eng | Sub Ukr/Eng

Гаррі Поттер і келих вогню / Harry Potter and the Goblet of Fire (2005) 1080p 2xUkr/Eng | Sub Ukr/Eng

«Dark And Difficult Times Lie Ahead.»

Жанр: детектив, фентезі, пригодницький, сімейний
Країна: Великобританія, США





Кінокомпанія: Warner Bros. Pictures, Heyday Films, Patalex IV Productions Limited
Режисер: Майк Ньюелл (Mike Newell)
Актори: Деніел Редкліф (Daniel Radcliffe), Руперт Ґрінт (Rupert Grint), Емма Вотсон (Emma Watson), Том Фелтон, Роберт Паттінсон (Robert Pattinson), Ральф Файнс (Ralph Fiennes), Алан Рікмен (Alan Rickman), Майкл Ґембон (Michael Gambon), Меґґі Сміт (Maggie Smith), Бонні Райт (Bonnie Wright), Джеймс Фелпс (James Phelps), Олівер Фелпс (Oliver Phelps)

Сюжет:
Гаррі, Рон и Герміона повертаються на четвертий курс до Школи Магії і Чарів Гоґвортс. При таємничих обставинах Гаррі відібрано до числа учасників небезпечного змагання – Тричаклунського Турніру, однак проблема в тому, що всі його суперники – набагато старші і сильніші. До того ж, знаки вказують на повернення Лорда Волдеморта. Дуже скоро Гаррі належить поборотися не лише за перемогу в змаганні, але й, перед усім, за власне життя.


Тривалість: 02:37:05
Якість: 1080p
Відео:
кодек:
розмір кадру: 1920 х 798
бітрейт: 9678 кб/с

Аудіо # 1:
мова: українська
переклад: багатоголосий закадровий
кодек: 5.1
бітрейт: 384 кб/с Аудіо # 2:
мова: українська
переклад: багатоголосий закадровий
кодек: 2.0
бітрейт: 192 кб/с
Інформація про озвучення
Аудіо # 3:
мова: англійська
переклад: оригінал
кодек: 5.1
бітрейт: 1536 кб/с

Субтитри # 1:
мова: українська
тип: програмні (м'які)
формат: *.srt

Субтитри # 2:
мова: англійська
тип: програмні (м'які)
формат: *.srt

Збережені оригінальні чаптери як на Blu-ray.
MediaInfo
Код:
General
Unique ID                                : 206856713893319083016055222350515731765 (0x9B9F27692AB611BEB940AD1E3546FD35)
Complete name                            : V:\Harry Potter and the Goblet of Fire (2005) [2xUkr, Eng] 1080p [Hurtom, HDClub] by leroykendall.mkv
Format                                   : Matroska
Format version                           : Version 4 / Version 2
File size                                : 12.9 GiB
Duration                                 : 2h 37mn
Overall bit rate                         : 11.8 Mbps
Movie name                               : Harry Potter and the Goblet of Fire (2005) [2xUkr, Eng] 1080p [Hurtom, HDClub] by leroykendall
Encoded date                             : UTC 2014-04-23 22:26:17
Writing application                      : mkvmerge v6.2.0 ('Promised Land') built on Apr 28 2013 12:22:01
Writing library                          : libebml v1.3.0 + libmatroska v1.4.0

Video
ID                                       : 1
Format                                   : AVC
Format/Info                              : Advanced Video Codec
Format profile                           : [email protected]
Format settings, CABAC                   : Yes
Format settings, ReFrames                : 5 frames
Codec ID                                 : V_MPEG4/ISO/AVC
Duration                                 : 2h 37mn
Bit rate                                 : 9 678 Kbps
Width                                    : 1 920 pixels
Height                                   : 798 pixels
Display aspect ratio                     : 2.40:1
Frame rate mode                          : Constant
Frame rate                               : 23.976 fps
Color space                              : YUV
Chroma subsampling                       : 4:2:0
Bit depth                                : 8 bits
Scan type                                : Progressive
Bits/(Pixel*Frame)                       : 0.263
Stream size                              : 10.4 GiB (80%)
Title                                    : Harry Potter and the Goblet of Fire (2005) 1080p
Writing library                          : core 64 r985 e256ea1
Encoding settings                        : cabac=1 / ref=5 / deblock=1:-3:-3 / analyse=0x3:0x113 / me=umh / subme=6 / psy_rd=1.0:0.0 / brdo=1 / mixed_ref=1 / me_range=16 / chroma_me=1 / trellis=0 / 8x8dct=1 / cqm=2 / deadzone=6,4 / chroma_qp_offset=-2 / threads=6 / nr=0 / decimate=0 / mbaff=0 / bframes=16 / b_pyramid=1 / b_adapt=1 / b_bias=0 / direct=1 / wpredb=1 / bime=1 / keyint=250 / keyint_min=25 / scenecut=40(pre) / rc=2pass / bitrate=9678 / ratetol=1.0 / qcomp=0.60 / qpmin=10 / qpmax=51 / qpstep=4 / cplxblur=20.0 / qblur=0.5 / ip_ratio=1.40 / pb_ratio=1.30 / aq=1:1.00
Language                                 : English
Default                                  : Yes
Forced                                   : No

Audio #1
ID                                       : 2
Format                                   : AC-3
Format/Info                              : Audio Coding 3
Mode extension                           : CM (complete main)
Format settings, Endianness              : Big
Codec ID                                 : A_AC3
Duration                                 : 2h 37mn
Bit rate mode                            : Constant
Bit rate                                 : 384 Kbps
Channel count                            : 6 channels
Channel positions                        : Front: L C R, Side: L R, LFE
Sampling rate                            : 48.0 KHz
Bit depth                                : 16 bits
Compression mode                         : Lossy
Delay relative to video                  : 1s 0ms
Stream size                              : 431 MiB (3%)
Title                                    : 5.1 @ 384 кб/с - багатоголосий закадровий, Новий канал
Language                                 : Ukrainian
Default                                  : No
Forced                                   : No

Audio #2
ID                                       : 3
Format                                   : AC-3
Format/Info                              : Audio Coding 3
Mode extension                           : CM (complete main)
Format settings, Endianness              : Big
Codec ID                                 : A_AC3
Duration                                 : 2h 37mn
Bit rate mode                            : Constant
Bit rate                                 : 192 Kbps
Channel count                            : 2 channels
Channel positions                        : Front: L R
Sampling rate                            : 48.0 KHz
Bit depth                                : 16 bits
Compression mode                         : Lossy
Stream size                              : 216 MiB (2%)
Title                                    : 2.0 @ 192 кб/с - багатоголосий закадровий, Інтер
Language                                 : Ukrainian
Default                                  : No
Forced                                   : No

Audio #3
ID                                       : 4
Format                                   :
Format/Info                              : Digital Theater Systems
Mode                                     : 16
Format settings, Endianness              : Big
Codec ID                                 : A_DTS
Duration                                 : 2h 37mn
Bit rate mode                            : Constant
Bit rate                                 : 1 510 Kbps
Channel count                            : 6 channels
Channel positions                        : Front: L C R, Side: L R, LFE
Sampling rate                            : 48.0 KHz
Bit depth                                : 24 bits
Compression mode                         : Lossy
Stream size                              : 1.66 GiB (13%)
Title                                    : 5.1 @ 1536 кб/с
Language                                 : English
Default                                  : No
Forced                                   : No

Text #1
ID                                       : 5
Format                                   : UTF-8
Codec ID                                 : S_TEXT/UTF8
Codec ID/Info                            : UTF-8 Plain Text
Language                                 : Ukrainian
Default                                  : No
Forced                                   : No

Text #2
ID                                       : 6
Format                                   : UTF-8
Codec ID                                 : S_TEXT/UTF8
Codec ID/Info                            : UTF-8 Plain Text
Language                                 : English
Default                                  : No
Forced                                   : No

Menu
00:00:00.000                             : en:The Riddle House
00:03:46.559                             : en:The Portkey
00:06:09.369                             : en:The Quidditch World Cup
00:09:50.089                             : en:The Dark Mark
00:13:45.324                             : en:The Triwizard Tournament
00:19:14.987                             : en:The Goblet of Fire
00:23:09.388                             : en:The Unforgivable Curses
00:29:01.573                             : en:The Four Champions
00:36:26.684                             : en:Let Events Unfold
00:39:05.009                             : en:Rita Skeeter
00:41:32.489                             : en:Sirius Conversation
00:45:36.400                             : en:The Hungarian Horntail
00:49:07.778                             : en:Transforming Malfoy
00:54:06.243                             : en:The First Task
01:02:46.596                             : en:Best Foot Foward
01:09:12.982                             : en:An Unexpected Challenge
01:14:43.979                             : en:The Yule Ball
01:22:27.609                             : en:The Egg's Glue
01:30:34.762                             : en:The Second Task
01:39:29.296                             : en:Never Whole Again
01:42:42.489                             : en:The Pensieve
01:47:22.936                             : en:Dreams and Suspicions
01:50:19.279                             : en:The Thrid Task
01:58:54.460                             : en:Flesh, Blood, and Bone
02:02:02.315                             : en:The Death Eaters
02:06:36.589                             : en:Priori Incantatem
02:10:01.627                             : en:Veritaserum
02:17:38.083                             : en:Parting Ways
02:23:48.620                             : en:End Credits
02:37:03.914                             : en:End
Скріншоти:





Джерело: &



Інші частини Гаррі Поттера 1080p:
Гаррі Поттер і філософський камінь / Harry Potter and the Sorcerer's Stone (2001) 1080p 2xUkr/Eng | Sub Ukr/Eng
Гаррі Поттер і філософський камінь (розширена версія) / Harry Potter (extended version) / (2001) 1080p Ukr/Eng | Sub Ukr
Гаррі Поттер і таємна кімната / Harry Potter and the Chamber of Secrets (2002) 1080p 2xUkr/Eng | Sub Ukr/Eng
Гаррі Поттер і в'язень Азкабану / Harry Potter and the Prisoner of Azkaban (2004) 1080p 3xUkr/Eng | Sub Ukr/Eng
Гаррі Поттер і келих вогню / Harry Potter and the Goblet of Fire (2005) 1080p 2xUkr/Eng | Sub Ukr/Eng
Гаррі Поттер та Орден Фенікса / Harry Potter and the Order of the Phoenix (2007) 1080p Ukr/Eng | Sub Ukr/Eng
Гаррі Поттер та напівкровний принц / Harry Potter and the Half-Blood Prince (2009) 1080p 2xUkr/Eng | Sub Ukr/Eng
Гаррі Поттер та Смертельні реліквії: Частина 1 / Harry Potter and the Deathly Hallows: Part 1 (2010) 1080p Ukr/Eng
Гаррі Поттер та Смертельні Реліквії. Частина друга / Harry Potter and the Deathly Hallows: Part 2 (2011) 1080p Ukr/Eng


 Трекер:    Зареєстрований   

Завантажити / скачати фільм українською



відео для новачків



 Зареєстрований:   2014-04-26 12:30
 Розмір:   12.91 GB 
 Оцінка фільму:   9.6/10 (Голосів: 41)
   
rakab 
Свій


З нами з: 02.08.09
Востаннє: 29.11.16
Повідомлень: 76

2014-04-26 14:10  
Це той же ріп, що був на Толоці раніше, тільки з оригінальною озвучкою? І покращеною українською?
igor911 
Відео Гуртом
Відео Гуртом


З нами з: 18.01.08
Востаннє: 03.12.16
Повідомлень: 5124

2014-04-26 17:08  
Так, ріп той самий+оригінальна озвучка+додано ще одну укр.озвучку з К1/Інтера.
leroykendall 
Модератор HD


З нами з: 03.01.11
Востаннє: 20.11.16
Повідомлень: 749

2014-04-26 20:22  
rakab написано:
Це той же ріп, що був на Толоці раніше, тільки з оригінальною озвучкою? І покращеною українською?

Ріп той самий - з HDClub'у. Дадани: озвучка від Інтера, оригінальна доріжка , українські субтитри, анлійські субтитри, ну і розділи як на блю-рей.

Ваш часовий пояс: GMT + 2 Години

Нова тема   Відповісти