Завантажити та скачати торренти українською


Rock-H / Рокаш - Дискографія (3 альбоми) (2012-2014) [FLAC] | Folk-Rock

Нові коментарі

Нова тема   Відповісти
Автор Повідомлення
hvvi 
Свій


З нами з: 25.02.10
Востаннє: 04.12.16
Повідомлень: 74

2014-04-26 10:29  
Rock-H / Рокаш - Дискографія (3 альбоми) (2012-2014) [FLAC] | Folk-Rock

Rock-H / Рокаш - Дискографія (3 альбоми) (2012-2014) [FLAC] | Folk-Rock


Стиль: Ethno Rock Rock
Країна, місто: Україна, Мукачево
Сайти: Офіційний сайт
Виконавці:
Іштван Халус - вокал
Віктор Янцо - клавішні
Мар’ян Криськув - гітара
Родіон Sun Lion - бас-гітара
Володимир Ульянов - ударні
Альбоми
In vinko veritas (2012)


Пісні:
01. Палиночка біла біла
02. Постели ми постілоньку
03. Вінко
04. Карта
05. Дай ми мила
06. Вівці
07. Щедрик
08. Америцький край
Бонус:
09. L'amour

Тривалість: 00:27:51
Мова: українська, французька(9)
Аудіо-кодек: FLAC
Бітрейт: 896 кб/с
Джерело: власний ріп
лог
Exact Audio Copy V1.0 beta 3 from 29. August 2011

EAC extraction logfile from 30. January 2013, 22:36

Rock-H / In vinko veritas

Used drive : HL-DT-STDVDRAM GE20NU10 Adapter: 1 ID: 0

Read mode : Secure
Utilize accurate stream : Yes
Defeat audio cache : No
Make use of C2 pointers : Yes

Combined read/write offset correction : 0
Overread into Lead-In and Lead-Out : No
Fill up missing offset samples with silence : Yes
Delete leading and trailing silent blocks : No
Null samples used in CRC calculations : Yes
Used interface : Native Win32 interface for Win NT & 2000
Gap handling : Not detected, thus appended to previous track

Used output format : User Defined Encoder
Selected bitrate : 896 kBit/s
Quality : High
Add ID3 tag : No
Command line compressor : C:\Program Files (x86)\Exact Audio Copy\FLAC\FLAC.EXE
Additional command line options : -T "artist=%artist%" -T "title=%title%" -T "album=%albumtitle%" -T "date=%year%" -T "tracknumber=%tracknr%" -T "genre=%genre%" -5 %source%

TOC of the extracted CD

Track | Start | Length | Start sector | End sector
---------------------------------------------------------
1 | 0:00.00 | 3:01.66 | 0 | 13640
2 | 3:01.66 | 3:01.32 | 13641 | 27247
3 | 6:03.23 | 2:24.58 | 27248 | 38105
4 | 8:28.06 | 4:12.13 | 38106 | 57018
5 | 12:40.19 | 3:16.00 | 57019 | 71718
6 | 15:56.19 | 2:43.18 | 71719 | 83961
7 | 18:39.37 | 2:52.44 | 83962 | 96905
8 | 21:32.06 | 2:56.60 | 96906 | 110165
9 | 24:28.66 | 3:22.01 | 110166 | 125316

Track 1

Filename D:\Music\!lossless\Rock-H\2012 - In vinko veritas\01 - Палиночка біла біла.wav

Peak level 98.6 %
Extraction speed 16.1 X
Track quality 100.0 %
Copy CRC ACCE5072
Copy OK

Track 2

Filename D:\Music\!lossless\Rock-H\2012 - In vinko veritas\02 - Постели ми постілоньку.wav

Peak level 98.6 %
Extraction speed 14.0 X
Track quality 99.7 %
Copy CRC 205C2617
Copy OK

Track 3

Filename D:\Music\!lossless\Rock-H\2012 - In vinko veritas\03 - Вінко.wav

Peak level 98.6 %
Extraction speed 20.9 X
Track quality 100.0 %
Copy CRC 9160FC9B
Copy OK

Track 4

Filename D:\Music\!lossless\Rock-H\2012 - In vinko veritas\04 - Карта.wav

Peak level 98.6 %
Extraction speed 23.1 X
Track quality 100.0 %
Copy CRC 4EEB28EE
Copy OK

Track 5

Filename D:\Music\!lossless\Rock-H\2012 - In vinko veritas\05 - Дай ми мила.wav

Peak level 98.6 %
Extraction speed 19.8 X
Track quality 99.8 %
Copy CRC 5E7A36BF
Copy OK

Track 6

Filename D:\Music\!lossless\Rock-H\2012 - In vinko veritas\06 - Вівці.wav

Peak level 98.6 %
Extraction speed 13.5 X
Track quality 99.8 %
Copy CRC DBD0BCCA
Copy OK

Track 7

Filename D:\Music\!lossless\Rock-H\2012 - In vinko veritas\07 - Щедрик.wav

Peak level 98.8 %
Extraction speed 23.2 X
Track quality 100.0 %
Copy CRC DE0B3F76
Copy OK

Track 8

Filename D:\Music\!lossless\Rock-H\2012 - In vinko veritas\08 - Америцький край.wav

Peak level 98.6 %
Extraction speed 23.9 X
Track quality 100.0 %
Copy CRC 5D1D01C0
Copy OK

Track 9

Filename D:\Music\!lossless\Rock-H\2012 - In vinko veritas\09 - L'amour.wav

Peak level 98.6 %
Extraction speed 22.6 X
Track quality 99.8 %
Copy CRC B36012EE
Copy OK

No errors occurred

End of status report
Отава (2013)


Пісні:
1. Марічко
2. Забав, циган
3. Урвалася струна
4. Добре тому коса косить
5. До милої
6. Цімборику
7. Чорна гора неорана
8. Співаночка
9. Василю
10. За що сь ня побила
11. Не буду ся женити

Тривалість: 00:38:09
Мова: українська
Аудіо-кодек: FLAC
Бітрейт: 963 кб/с
Джерело: власний ріп
лог
Exact Audio Copy V1.0 beta 3 from 29. August 2011

EAC extraction logfile from 18. February 2013, 19:23

Rock-H / Отава

Used drive : HL-DT-STDVDRAM GE20NU10 Adapter: 1 ID: 0

Read mode : Secure
Utilize accurate stream : Yes
Defeat audio cache : No
Make use of C2 pointers : Yes

Combined read/write offset correction : 0
Overread into Lead-In and Lead-Out : No
Fill up missing offset samples with silence : Yes
Delete leading and trailing silent blocks : No
Null samples used in CRC calculations : Yes
Used interface : Native Win32 interface for Win NT & 2000
Gap handling : Not detected, thus appended to previous track

Used output format : User Defined Encoder
Selected bitrate : 1024 kBit/s
Quality : High
Add ID3 tag : Yes
Command line compressor : C:\Program Files (x86)\Exact Audio Copy\FLAC\FLAC.EXE
Additional command line options : -T "artist=%artist%" -T "title=%title%" -T "album=%albumtitle%" -T "date=%year%" -T "tracknumber=%tracknr%" -T "genre=%genre%" -5 %source%

TOC of the extracted CD

Track | Start | Length | Start sector | End sector
---------------------------------------------------------
1 | 0:00.00 | 3:19.24 | 0 | 14948
2 | 3:19.24 | 3:23.00 | 14949 | 30173
3 | 6:42.24 | 3:33.42 | 30174 | 46190
4 | 10:15.66 | 3:26.64 | 46191 | 61704
5 | 13:42.55 | 3:06.65 | 61705 | 75719
6 | 16:49.45 | 3:24.31 | 75720 | 91050
7 | 20:14.01 | 3:48.46 | 91051 | 108196
8 | 24:02.47 | 3:15.09 | 108197 | 122830
9 | 27:17.56 | 3:28.44 | 122831 | 138474
10 | 30:46.25 | 3:18.65 | 138475 | 153389
11 | 34:05.15 | 4:03.54 | 153390 | 171668

Track 1

Filename D:\Music\!lossless\Rock-H\2013 - Отава\01 - Марічко.wav

Peak level 98.7 %
Extraction speed 16.4 X
Track quality 100.0 %
Copy CRC A472C1C0
Copy OK

Track 2

Filename D:\Music\!lossless\Rock-H\2013 - Отава\02 - Забав, циган.wav

Peak level 98.7 %
Extraction speed 17.4 X
Track quality 99.8 %
Copy CRC 1F0E0114
Copy OK

Track 3

Filename D:\Music\!lossless\Rock-H\2013 - Отава\03 - Урвалася струна.wav

Peak level 98.7 %
Extraction speed 21.7 X
Track quality 100.0 %
Copy CRC 482553ED
Copy OK

Track 4

Filename D:\Music\!lossless\Rock-H\2013 - Отава\04 - Добре тому коса косить.wav

Peak level 98.7 %
Extraction speed 23.8 X
Track quality 100.0 %
Copy CRC B556ABA1
Copy OK

Track 5

Filename D:\Music\!lossless\Rock-H\2013 - Отава\05 - До милої.wav

Peak level 98.7 %
Extraction speed 25.2 X
Track quality 100.0 %
Copy CRC C56DAE41
Copy OK

Track 6

Filename D:\Music\!lossless\Rock-H\2013 - Отава\06 - Цімборику.wav

Peak level 98.7 %
Extraction speed 23.4 X
Track quality 100.0 %
Copy CRC E7F76C07
Copy OK

Track 7

Filename D:\Music\!lossless\Rock-H\2013 - Отава\07 - Чорна гора неорана.wav

Peak level 98.7 %
Extraction speed 27.7 X
Track quality 100.0 %
Copy CRC 1DD025A0
Copy OK

Track 8

Filename D:\Music\!lossless\Rock-H\2013 - Отава\08 - Співаночка.wav

Peak level 98.7 %
Extraction speed 29.4 X
Track quality 100.0 %
Copy CRC 57DFDCF8
Copy OK

Track 9

Filename D:\Music\!lossless\Rock-H\2013 - Отава\09 - Василю.wav

Peak level 98.7 %
Extraction speed 26.5 X
Track quality 100.0 %
Copy CRC A816FF79
Copy OK

Track 10

Filename D:\Music\!lossless\Rock-H\2013 - Отава\10 - За што сь ня побила.wav

Peak level 98.7 %
Extraction speed 20.0 X
Track quality 99.8 %
Copy CRC 52B3AEFF
Copy OK

Track 11

Filename D:\Music\!lossless\Rock-H\2013 - Отава\11 - Не буду ся женити.wav

Peak level 98.7 %
Extraction speed 29.1 X
Track quality 100.0 %
Copy CRC EDF335A6
Copy OK

No errors occurred

End of status report
Білий динь (2014)


Пісні:
01 - Білий динь
02 - Качечка
03 - Мой мой
04 - Долина
05 - Біла дівко
06 - Жалю
07 - Што сь ми наробила
08 - Як почуєш вночі
09 - Гоп се-се
10 - Комониця
11 - Гості
12 - Гнуй

Тривалість: 00:38:12
Мова: українська
Аудіо-кодек: FLAC
Бітрейт: 1680 кб/с
Джерело: Rock-H
Тривалість: 01:44:12
Мова: українська, французька
Аудіо-кодек: FLAC
Бітрейт: 896-1680кб/с
Джерело: власний ріп, Rock-H
Додаткова інформація:
«Rock-H» або «Рокаш» — український рок-гурт з Мукачево, Закарпаття. Півфіналіст проекту «Свіжа кров» на телеканалі М1, лауреат фестивалю «Червона рута».

Свій стиль характеризують як рок з елементами академічної музики і закарпатського фольклору. Більшість пісень гурту — закарпатським говором, самі музиканти називають його «русинська бесіда». Також є пісні літературною українською, англійською та французькою мовами.

Слово «Рокаш» (угор. rakás) закарпатською говіркою означає «гурт», «купу», «спільноту» і разом з тим має корінь «рок», позначаючи стиль музики колективу.


Якщо Ви справді бажаєте підтримати українське - після прослуховування, якщо музика вам сподобалась, придбайте ліцензійний диск. Підтримаймо вітчизняних виконавців!


Золотий реліз (завантажене не впливає на рейтинг)
 Трекер:    Зареєстрований   

Завантажити / скачати українську музику



відео для новачків



 Зареєстрований:   2014-04-26 10:29
 Розмір:   900 MB 
 Оцінка музики:   10/10 (Голосів: 20)
   
civ 
VIP


З нами з: 16.02.11
Востаннє: 04.12.16
Повідомлень: 429

2014-04-26 10:54  
А чим ріпали, EACом? Log-файли у вас збереглися? Можете додати їх до роздачі та під спойлер?
hvvi 
Свій


З нами з: 25.02.10
Востаннє: 04.12.16
Повідомлень: 74

2014-04-26 10:56  
civ
два альбоми eac інший студійний, до двох можу додати в описи

ssTAss 
Модератор музики


З нами з: 05.07.08
Востаннє: 05.12.16
Повідомлень: 10941

2014-04-26 21:17  
hvvi написано:
Used drive : HL-DT-STDVDRAM GE20NU10

для Вашої "лижі" оце значення
hvvi написано:
Combined read/write offset correction : 0

має бути +667
та й взагалі б радив ріпати образом... мороки менше

Додано через 1 хвилину 4 секунди:

hvvi написано:
до двох можу додати в описи

додайте краще в роздачу

civ 
VIP


З нами з: 16.02.11
Востаннє: 04.12.16
Повідомлень: 429

2014-04-26 22:00  
Так, я би теж був вдячний, якби ви переріпали образом із правильним значенням Combined read/write offset correction!
Леді22 
Забанено
Забанено


З нами з: 05.04.14
Востаннє: 15.03.15
Повідомлень: 234

2014-09-17 15:50  
Просто ЧУДОВИЙ гурт і прекрасна музика!!!!
Леді22 
Забанено
Забанено


З нами з: 05.04.14
Востаннє: 15.03.15
Повідомлень: 234

2014-10-21 22:32  
Люблю Рокаш!! Дуууже мені подобається закарпатська говірка, вона дуже гарна і шляхетна… І що ще, так: відчувається, що співають справжні чоловіки! Нема у них чоловічої самозакоханості та егоїзму у піснях, нема (а у декого є).
Вони справжні чоловіки. Дівчата, слухаймо Рокаш!

п.с. дуже чекаю на сольник Віктора Янцо «Співаночки про любов».

charovik 
Новенький


З нами з: 10.09.12
Востаннє: 14.12.14
Повідомлень: 1

2014-12-14 18:26  
Вчора був на концерті групи в Ужгороді, було багато нових пісень. Очікуємо в наступному році новий диск.
pvm65 
Частий відвідувач


З нами з: 02.01.16
Востаннє: 29.11.16
Повідомлень: 28

2016-01-21 00:46  
А чого так, нема ні cue, ні log - файлів і cover-и відсутні ?
Ваш часовий пояс: GMT + 2 Години

Нова тема   Відповісти