Завантажити та скачати торренти українською


Судна ніч / Чистка / The Purge (2013) 720р Ukr/Eng | Sub Ukr/Eng

Нові коментарі

Нова тема   Відповісти
Автор Повідомлення
Віталій Прискурій 
Свій


З нами з: 18.06.13
Востаннє: 01.12.16
Повідомлень: 144

2014-04-25 11:44  
Судна ніч / Чистка / The Purge (2013) 720р Ukr/Eng | Sub Ukr/Eng

Судна ніч / Чистка / The Purge (2013) 720р Ukr/Eng | Sub Ukr/Eng


Жанр: трилер, жахи
Країна: США, Франція



Кінокомпанія: Blumhouse Productions, Platinum Dunes, Universal Pictures
Режисер: Джеймс ДеМонако
Актори: Ітан Гоук, Ліна Гіді, Аделаїда Кейн, Макс Буркхолдер, Едвін Годж, Тоні Оллер, Різ Вейкфілд та інші

Сюжет:
Світ майбутнього - світ без злочинності... безробіття... воєн. І все це завдяки одній ночі в році, коли можна відправити на той світ будь-кого - ненависного боса, галасливих сусідів, набридливих родичів. У цю ніч дозволено все - головне дожити до світанку.


Тривалість: 01:25:18
Якість:
Відео:
кодек:
розмір кадру: 1 280 х 534
бітрейт: 8 148 кб/с

Аудіо # 1:
мова: українська
переклад: багатоголосий закадровий | "Akord+" & "UkrVoiceTeam"
кодек: 5.1
бітрейт: 448 кб/с

Озвучення: Михайло Мовчко, Віталій Прискурій, Остап Карвацький, Роберт Менус, Юлія Девда, Людмила Швець та Віктор Чорней
Монтаж та робота зі звуком: Віталій Прискурій та Остап Карвацький
Обкладинки: Михайло Мовчко

Аудіо # 2:
мова: англійська
переклад: оригінал
кодек: 5.1
бітрейт: 640 кб/с

Джерело озвучення:


Субтитри:
мова: українська
тип: програмні (м'які)
формат: *.srt

Субтитри:
мова: англійська
тип: програмні (м'які)
формат: *.srt
Трейлер

MediaInfo

General
Unique ID : 238048559378820510592665184351553631350 (0xB3167C209C3287F582D21DA15680B476)
Complete name : D:\[Akord+ & UVT] The.Purge.2013.720p.BluRay..mkv
Format : Matroska
Format version : Version 4 / Version 2
File size : 5.61 GiB
Duration : 1h 25mn
Overall bit rate : 9 423 Kbps
Movie name : Akord+ та UkrVoiceTeam 5.1
Encoded date : UTC 2014-04-25 09:06:34
Writing application : mkvmerge v6.8.0 ('Theme for Great Cities') 32bit built on Mar 2 2014 21:27:07
Writing library : libebml v1.3.0 + libmatroska v1.4.1

Video
ID : 1
Format : AVC
Format/Info : Advanced Video Codec
Format profile : [email protected]
Format settings, CABAC : Yes
Format settings, ReFrames : 12 frames
Codec ID : V_MPEG4/ISO/AVC
Duration : 1h 25mn
Bit rate : 8 148 Kbps
Width : 1 280 pixels
Height : 534 pixels
Display aspect ratio : 2.40:1
Frame rate mode : Constant
Frame rate : 23.976 fps
Color space : YUV
Chroma subsampling : 4:2:0
Bit depth : 8 bits
Scan type : Progressive
Bits/(Pixel*Frame) : 0.497
Stream size : 4.85 GiB (86%)
Title : Akord+ та UkrVoiceTeam 5.1
Writing library : core 133 r2334 a3ac64b
Encoding settings : cabac=1 / ref=12 / deblock=1:-3:-3 / analyse=0x3:0x113 / me=tesa / subme=11 / psy=1 / psy_rd=1.05:0.00 / mixed_ref=1 / me_range=32 / chroma_me=1 / trellis=2 / 8x8dct=1 / cqm=0 / deadzone=21,11 / fast_pskip=0 / chroma_qp_offset=-2 / threads=12 / lookahead_threads=2 / sliced_threads=0 / nr=0 / decimate=1 / interlaced=0 / bluray_compat=0 / constrained_intra=0 / bframes=8 / b_pyramid=2 / b_adapt=2 / b_bias=0 / direct=3 / weightb=1 / open_gop=0 / weightp=2 / keyint=250 / keyint_min=25 / scenecut=40 / intra_refresh=0 / rc=crf / mbtree=0 / crf=15.8 / qcomp=0.70 / qpmin=0 / qpmax=69 / qpstep=4 / ip_ratio=1.40 / pb_ratio=1.30 / aq=1:0.70
Language : English
Default : No
Forced : No
Matrix coefficients : BT.709

Audio #1
ID : 2
Format : AC-3
Format/Info : Audio Coding 3
Mode extension : CM (complete main)
Format settings, Endianness : Big
Codec ID : A_AC3
Duration : 1h 25mn
Bit rate mode : Constant
Bit rate : 448 Kbps
Channel(s) : 6 channels
Channel positions : Front: L C R, Side: L R, LFE
Sampling rate : 48.0 KHz
Bit depth : 16 bits
Compression mode : Lossy
Stream size : 273 MiB (5%)
Title : Akord+ та UkrVoiceTeam 5.1
Language : Ukrainian
Default : Yes
Forced : No

Audio #2
ID : 3
Format : AC-3
Format/Info : Audio Coding 3
Mode extension : CM (complete main)
Format settings, Endianness : Big
Codec ID : A_AC3
Duration : 1h 25mn
Bit rate mode : Constant
Bit rate : 640 Kbps
Channel(s) : 6 channels
Channel positions : Front: L C R, Side: L R, LFE
Sampling rate : 48.0 KHz
Bit depth : 16 bits
Compression mode : Lossy
Stream size : 390 MiB (7%)
Title : Original
Language : English
Default : No
Forced : No

Text #1
ID : 4
Format : UTF-8
Codec ID : S_TEXT/UTF8
Codec ID/Info : UTF-8 Plain Text
Title : Sub-full
Language : Ukrainian
Default : No
Forced : No

Text #2
ID : 5
Format : UTF-8
Codec ID : S_TEXT/UTF8
Codec ID/Info : UTF-8 Plain Text
Title : Sub-full
Language : English
Default : No
Forced : No
Скріншоти


Джерело: &
Особиста оцінка: 8 - мені сподобалося


Золотий реліз (завантажене не впливає на рейтинг)
 Трекер:    Зареєстрований   

Завантажити / скачати фільм українською



відео для новачків



 Зареєстрований:   2014-04-25 11:44
 Розмір:   5.61 GB 
 Оцінка фільму:   9.2/10 (Голосів: 18)
 akordplus.com.ua та UkrVoiceTeam
   
alexcaptain 
Свій


З нами з: 20.03.14
Востаннє: 27.11.16
Повідомлень: 74

2014-04-25 15:30  
Ще б швидкості Happy Стоїть мертво
Віталій Прискурій 
Свій


З нами з: 18.06.13
Востаннє: 01.12.16
Повідомлень: 144

2014-04-25 15:49  
alexcaptain
Завантажило 9 людей, швидкість мала б бути великою, а я роздаю як можу бо ще й 1080р на роздачі

Ваш часовий пояс: GMT + 2 Години

Нова тема   Відповісти