Завантажити та скачати торренти українською


Ціна зради / Derailed (2005)

Нові коментарі

Нова тема   Відповісти

Увійдіть, щоб проголосувати
Автор Повідомлення
Myk1209 
Свій


З нами з: 04.02.12
Востаннє: 08.12.16
Повідомлень: 112

2014-04-24 13:04  
Ціна зради / Derailed (2005)

Ціна зради / Derailed (2005)


Жанр: трилер, драма
Країна: США, Великобританія



Кінокомпанія: Miramax Films
Режисер: Мікаель Хафстрьом (Mikael Håfström)
Актори: Клайв Оуен (Clive Owen), Венсан Кассель (Vincent Cassel), Дженніфер Еністон (Jennifer Aniston), Xzibit

Сюжет:
Кожен день Чарльза Шайна (Клайв Оуен), службовця рекламного агенства, схожий на попередній. Щоранку він сідає на той самий потяг і їде на роботу. Всі сили Чарльза та його дружини Діани спрямовані тільки на лікування дочки Емі, хворої на діабет.
Однак все змінюється одного ранку, коли Чарльз запізнюється на свій потяг і тому змушений сісти на наступний. Не маючи грошей на квиток, він погоджується, аби за нього заплатила чарівна Люсінда (Дженніфер Аністон). Tе, що спочатку здається легким фліртом, згодом приводить їх у готельний номер, коли все починає йти шкереберть. В номер вдирається озброєний чоловік, який б'є Чарльза і ґвалтує Люсінду. З цього моменту життя головного героя перетворюється на кошмар, і кожен крок, здається, лише ускладнює пошук виходу з нього...


Тривалість: 01:42:43
Якість:
Відео:
кодек:
розмір кадру: 640x272
бітрейт: 1738 кб/с

Аудіо:
мова: українська
переклад: багатоголосий закадровий
кодек: 2.0
бітрейт: 192 кб/с

Джерело озвучення:
Скріншоти




Media Info

General
Complete name : D:\wow\Derailed (2005) [Ukr] [Hurtom] by O.K..avi
Format : AVI
Format/Info : Audio Video Interleave
File size : 1.38 GiB
Duration : 1h 42mn
Overall bit rate : 1 928 Kbps
Writing application : VirtualDubModUkr 1.5.10.2 (build 2542/release)
Writing library : VirtualDubMod build 2542/release

Video
ID : 0
Format : MPEG-4 Visual
Format profile : Advanced [email protected]
Format settings, BVOP : Yes
Format settings, QPel : No
Format settings, GMC : No warppoints
Format settings, Matrix : Default (H.263)
Muxing mode : Packed bitstream
Codec ID :
Codec ID/Hint :
Duration : 1h 42mn
Bit rate : 1 738 Kbps
Width : 640 pixels
Height : 272 pixels
Display aspect ratio : 2.35:1
Frame rate : 25.000 fps
Color space : YUV
Chroma subsampling : 4:2:0
Bit depth : 8 bits
Scan type : Progressive
Bits/(Pixel*Frame) : 0.399
Stream size : 1.25 GiB (90%)
Writing library : 64

Audio
ID : 1
Format : AC-3
Format/Info : Audio Coding 3
Mode extension : CM (complete main)
Codec ID : 2000
Duration : 1h 36mn
Bit rate mode : Constant
Bit rate : 192 Kbps
Channel(s) : 2 channels
Channel positions : Front: L R
Sampling rate : 48.0 KHz
Stream size : 133 MiB (9%)
Alignment : Split accross interleaves
Interleave, duration : 42 ms (1.06 video frame)
Interleave, preload duration : 500 ms
Подяка пану РОМЕО за українську доріжку. Кому потрібна - тут: http://www.ex.ua/75918997

Особиста оцінка: 10 - без зайвих вагань рекомендую всім!


 Трекер:    Зареєстрований   

Завантажити / скачати фільм українською



відео для новачків



 Зареєстрований:   2014-04-24 15:35
 Розмір:   1.38 GB 
 Оцінка фільму:   9.3/10 (Голосів: 44)
   
Інші релізи
   Ціна зради / Derailed [Unrated] (2005) Ukr/Eng | sub Ukr/Eng JACKUS  2 / 0   2.18 GB   2014-07-01 01:45 
   Ціна зради / Derailed (2005) Eng | sub Ukr/Eng Дмитро митро  0 / 0   1.87 GB   2012-02-03 16:14 
CassandraAlexandra 
Новенький


З нами з: 03.09.12
Востаннє: 21.11.16
Повідомлень: 1

2014-04-24 16:03  
Дякую за чудову роботу! Завантажую і буду на роздачі!
Myk1209 
Свій


З нами з: 04.02.12
Востаннє: 08.12.16
Повідомлень: 112

2014-04-24 16:21  
Дякую за подяку!

Перепрошую за швидкість роздачі - 128 kb/s Sad (1) За кілька днів буду роздавати на 5 Mb/s

Дякую за розуміння! Wink (1)

garboozz 
Новенький


З нами з: 16.10.10
Востаннє: 27.11.16
Повідомлень: 14

2014-04-25 17:50  
я перепррошую а можна вже почати якось роздачу а то за 2 дня я еічого не скачав....чи може краще закрити тему?
usmihnys 
Новенький


З нами з: 23.01.09
Востаннє: 07.12.16
Повідомлень: 21

2014-04-25 18:55  
Роздача загалом буде, чи ні? Нехай хоч 128 kb/s.
Myk1209 
Свій


З нами з: 04.02.12
Востаннє: 08.12.16
Повідомлень: 112

2014-04-25 19:53  
Потерпіть дві доби-максимум,будь ласкаWink (1)Буде роздача.ДУЖЕ ДЯКУЮ ЗА РОЗУМІННЯ!
Vasyava 
VIP


З нами з: 25.04.10
Востаннє: 08.12.16
Повідомлень: 310

2014-04-27 04:26  
Хороший фільм,і навіть повчальний.
Myk1209 
Свій


З нами з: 04.02.12
Востаннє: 08.12.16
Повідомлень: 112

2014-04-27 05:58  
Vasyava
Дякую!Тому шукав до нього Українську мову років зо п'ятьWink (1)

igorleon123 
Новенький


З нами з: 04.04.13
Востаннє: 06.12.16
Повідомлень: 10

2014-04-28 22:48  
Фільм бомба всім любителям трилерів раджу переглянути!!!!!!!!!!!!!!!!
Nik123 
Частий відвідувач


З нами з: 05.05.12
Востаннє: 02.12.16
Повідомлень: 36

2014-05-18 06:36  
Кожен відповідатиме за скоєне...!
eXteSy- 
VIP


З нами з: 06.04.09
Востаннє: 08.12.16
Повідомлень: 1454

2014-08-13 21:05  
Напружений фільм з чудовою акторською грою і кількома різкими поворотами сюжету, деякі з яких виявилися несподіваними.
9/10

gaidai 
Поважний учасник


З нами з: 06.07.10
Востаннє: 05.12.16
Повідомлень: 167

2014-10-27 10:31  
Чому "ціна зради"? Це той випадок, коли рашастанський переклад правильніший...
Книга Сігала чудова, надіюсь і муві буде таке ж саме.
Дякую за реліз!

Myk1209 
Свій


З нами з: 04.02.12
Востаннє: 08.12.16
Повідомлень: 112

2014-10-28 08:13  
gaidai
Самому не дуже,але так перекладено каналом...;(
Дякую за подяку!

gaidai 
Поважний учасник


З нами з: 06.07.10
Востаннє: 05.12.16
Повідомлень: 167

2014-10-28 21:42  
Переглянув кіно.
СУПЕР!
Нічого зайвого, дуже якісний фільм! 10 із 10.
Ще раз дякую

яфіук56н 
VIP


З нами з: 15.11.12
Востаннє: 08.12.16
Повідомлень: 339

2014-10-28 22:40  
Непогане кіно,схоже на "Побічну дію",але відчутно слабше. 7/10.
boroznaya 
VIP


З нами з: 02.11.12
Востаннє: 08.12.16
Повідомлень: 1876

2016-01-19 16:40  
В архів!
Ваш часовий пояс: GMT + 2 Години

Нова тема   Відповісти