Завантажити та скачати торренти українською


Аладдін 2: Повернення Джафара / Return of Jafar (1994) Eng/ sub Ukr

Нові коментарі

Нова тема   Відповісти
Автор Повідомлення
Anonymous 







2014-04-24 11:58  
Аладдін 2: Повернення Джафара / Return of Jafar (1994) Eng/ sub Ukr

Аладдін 2: Повернення Джафара / Return of Jafar (1994) Eng/ sub Ukr


Жанр: анімація, пригодницький, сімейний
Країна: США




Кінокомпанія: Walt Disney Home Video, Walt Disney Television Animation
Режисер: Тобі Шелтон, Тед Стоунс, Алан Заслов
Актори: Джейсон Александр, Джонатан Фрімен, Джеф Беннетт, Ґілберт Ґотфрід, та ін.

Сюжет:
Продовження казки про Аладдіна. Поганцю Джафару вдається звільнитись з полону, і він прагне лише одного - помститись Аладдіну.

А тим часом бешкетник Джин повернувся з навколосвітньої подорожі, і розповідає друзям про свої неймовірні пригоди. Та спокій триватиме не довго. Друзям доведеться знову зустріти небезпеку і їм знадобиться вся їхня мужність і магія.


Тривалість: 01:06:16
Якість:
Відео:
кодек:
розмір кадру: 736 х 540
бітрейт: 2701кб/с

Аудіо:
мова: англійська
переклад: оригінал
кодек: MP3
бітрейт: 192кб/с

Субтитри:
мова: українська
тип: програмні (м'які)
формат: *.srt
переклад Lepich з оригіналу:

Media info
General
Complete name : D:\Movie\Aladdin 2 The Return Of Jaffar\THE RETURN OF JAFFAR.avi
Format : AVI
Format/Info : Audio Video Interleave
Format profile : OpenDML
File size : 1.35 GiB
Duration : 1h 6mn
Overall bit rate : 2 908 Kbps

Video
ID : 0
Format : MPEG-4 Visual
Format profile : Advanced [email protected]
Format settings, BVOP : 1
Format settings, QPel : Yes
Format settings, GMC : 3 warppoints
Format settings, Matrix : Default (MPEG)
Muxing mode : Packed bitstream
Codec ID : MP4V
Codec ID/Info : Apple QuickTime MPEG-4 native
Duration : 1h 6mn
Bit rate : 2 701 Kbps
Width : 736 pixels
Height : 540 pixels
Display aspect ratio : 4:3
Frame rate : 25.000 fps
Color space : YUV
Chroma subsampling : 4:2:0
Bit depth : 8 bits
Scan type : Progressive
Compression mode : Lossy
Bits/(Pixel*Frame) : 0.278
Stream size : 1.25 GiB (93%)
Writing library : DivX 1393

Audio
ID : 1
Format : MPEG Audio
Format version : Version 1
Format profile : Layer 3
Mode : Joint stereo
Mode extension : MS Stereo
Codec ID : 55
Codec ID/Hint : MP3
Duration : 1h 6mn
Bit rate mode : Constant
Bit rate : 192 Kbps
Channel(s) : 2 channels
Sampling rate : 48.0 KHz
Compression mode : Lossy
Stream size : 91.0 MiB (7%)
Alignment : Aligned on interleaves
Interleave, duration : 24 ms (0.60 video frame)
Interleave, preload duration : 1008 ms
Скріншоти




Джерело: Інше

Особиста оцінка: 10 - без зайвих вагань рекомендую всім!


Фріліч (завантажене не впливає на рейтинг)
 Трекер:    Зареєстрований   

Завантажити / скачати мультфільм українською



відео для новачків



 Зареєстрований:   2014-04-24 14:16
 Розмір:   1.35 GB 
 Оцінка мультфільму:   9.7/10 (Голосів: 20)
   
bot 
робот


З нами з: 30.09.07
Востаннє: 26.05.05
Повідомлень: 16346

2014-04-24 11:59  
Тему перенесено з Мультфільми до форуму Анонси релізів


lepich

bot 
робот


З нами з: 30.09.07
Востаннє: 26.05.05
Повідомлень: 16346

2014-04-24 14:16  
Тему перенесено з Анонси релізів до форуму Мультфільми


lepich

omm 
Відео Гуртом - фільмокрай
Відео Гуртом - фільмокрай


З нами з: 12.06.12
Востаннє: 18.01.17
Повідомлень: 2072

2014-04-24 14:43  
Років, здається 7-8 тому показували на 1+1. Шкода, що не збереглася озвучка
kino. 
Модератор відео


З нами з: 27.06.10
Востаннє: 18.01.17
Повідомлень: 2902

2014-04-24 17:18  
lepich написано:
розмір кадру: 736 х 540

Згідно Media info скріншоти
lepich написано:

Width : 720 pixels
Height : 540 pixels
то де правда?
hash0ff 
Новенький


З нами з: 12.02.12
Востаннє: 17.01.17
Повідомлень: 1

2015-01-09 20:26  
Озвучки так і немає?
artkollo 
Новенький


З нами з: 30.11.08
Востаннє: 18.01.17
Повідомлень: 11

2015-11-12 17:43  
Озвучіть на українській
Gedet 
Відео Гуртом - субтитрування
Відео Гуртом - субтитрування


З нами з: 17.11.11
Востаннє: 12.01.17
Повідомлень: 1749

2015-11-14 16:03  
artkollo
Заплатите за озвучення?

andros507 
Частий відвідувач


З нами з: 15.09.10
Востаннє: 19.01.17
Повідомлень: 34

2015-12-10 14:59  
Gedet
Винесіть на голосування озвучення мультфільмів

Gedet 
Відео Гуртом - субтитрування
Відео Гуртом - субтитрування


З нами з: 17.11.11
Востаннє: 12.01.17
Повідомлень: 1749

2015-12-13 00:04  
Аби хтось заплатив - так кожен може.
Ваш часовий пояс: GMT + 2 Години

Нова тема   Відповісти