Завантажити та скачати торренти українською


Пожежі / Incendies (2010) 720p Ukr/Fra | Sub Ukr/Fra/Eng

Нові коментарі

Нова тема   Відповісти
Автор Повідомлення
leroykendall 
Модератор HD


З нами з: 03.01.11
Востаннє: 20.11.16
Повідомлень: 749

2014-04-23 00:28  
Пожежі / Incendies (2010) 720p Ukr/Fra | Sub Ukr/Fra/Eng

Пожежі / Incendies (2010) 720p Ukr/Fra | Sub Ukr/Fra/Eng

«The search began at the opening of their mother's will.»

Жанр: драма, детектив, воєнний
Країна: Канада, Франція


Top 250: #183


Кінокомпанія: micro_scope, TS Productions, Phi Group
Режисер: Дені Вільнев (Denis Villeneuve)
Актори: Мустафа Камел (Mustafa Kamel), Хусейн Самі (Hussein Sami), Ремі Жирар (Rémy Girard), Мелісса Дезормо-Пулен (Mélissa Désormeaux-Poulin), Максім Ґодетт (Maxim Gaudette), Домінік Бріан (Dominique Briand), Любна Азабаль (Lubna Azabal), Фредерік Паке (Frédéric Paquet), Хамед Майем (Hamed Najem), Ахмад Массад (Ahmad Massad)

Сюжет:
Після своєї смерті, мати, Наваль Марван, заповідає своїм дітям, близнюкам Жані та Сімону, віднайти їхніх батька і брата, про яких вони ніколи нічого не чули. Для того, щоб розгадати сімейні таємниці, їм потрібно вирушити на Середній Схід, Батьківщину матері, землю постійних воєн та безсмертного кохання.
Але деякі таємниці краще було б не знати...


Тривалість: 02:10:28
Якість: 720p
Відео:
кодек:
розмір кадру: 1280 х 688
бітрейт: 5000 кб/с

Аудіо # 1:
мова: українська
переклад: двоголосий закадровий, компанія "Кіт" для
кодек: 2.0
бітрейт: 192 кб/с

Аудіо # 2:
мова: французька
переклад: оригінал
кодек: 5.1
бітрейт: 1536 кб/с

Аудіо # 3:
мова: англійська
переклад: коментарі режисера та сценаріста Дені Вільнева англійською мовою
кодек: 2.0
бітрейт: 192 кб/с

Субтитри # 1:
мова: українська
тип: програмні (м'які)
формат: *.srt

Субтитри # 2:
мова: французька
тип: програмні (м'які)
формат: *.srt

Субтитри # 3:
мова: англійська (форсовані)
тип: програмні (м'які)
формат: *.srt

Субтитри # 4:
мова: англійська (повні)
тип: програмні (м'які)
формат: *.srt

Збережені оригінальні чаптери як на Blu-ray.
MediaInfo
Код:
General
Unique ID                                : 202150994833086934715943671914519199246 (0x9814DD8C67DCC87CB76BA0557F79FE0E)
Complete name                            : V:\Incendies (2010) [Ukr, Fre] 720p [Hurtom] by leroykendall.mkv
Format                                   : Matroska
Format version                           : Version 4 / Version 2
File size                                : 6.28 GiB
Duration                                 : 2h 10mn
Overall bit rate                         : 6 894 Kbps
Movie name                               : Incendies (2010) [Ukr, Fre] 720p [Hurtom] by leroykendall
Encoded date                             : UTC 2014-04-22 20:59:24
Writing application                      : mkvmerge v6.2.0 ('Promised Land') built on Apr 28 2013 12:22:01
Writing library                          : libebml v1.3.0 + libmatroska v1.4.0

Video
ID                                       : 1
Format                                   : AVC
Format/Info                              : Advanced Video Codec
Format profile                           : [email protected]
Format settings, CABAC                   : Yes
Format settings, ReFrames                : 4 frames
Codec ID                                 : V_MPEG4/ISO/AVC
Duration                                 : 2h 10mn
Bit rate                                 : 5 000 Kbps
Width                                    : 1 280 pixels
Height                                   : 688 pixels
Display aspect ratio                     : 1.85:1
Frame rate mode                          : Constant
Frame rate                               : 23.976 fps
Color space                              : YUV
Chroma subsampling                       : 4:2:0
Bit depth                                : 8 bits
Scan type                                : Progressive
Bits/(Pixel*Frame)                       : 0.237
Stream size                              : 4.43 GiB (71%)
Title                                    : Incendies (2010) 720p [HDClub, Hurtom]
Writing library                          : core 116 r2057 0ba8a9c
Encoding settings                        : cabac=1 / ref=3 / deblock=1:-3:-3 / analyse=0x3:0x133 / me=umh / subme=10 / psy=1 / psy_rd=1.00:0.00 / mixed_ref=1 / me_range=32 / chroma_me=1 / trellis=2 / 8x8dct=1 / cqm=0 / deadzone=21,11 / fast_pskip=0 / chroma_qp_offset=-2 / threads=18 / sliced_threads=0 / nr=0 / decimate=0 / interlaced=0 / bluray_compat=0 / constrained_intra=0 / bframes=7 / b_pyramid=2 / b_adapt=2 / b_bias=0 / direct=3 / weightb=1 / open_gop=0 / weightp=2 / keyint=250 / keyint_min=23 / scenecut=40 / intra_refresh=0 / rc_lookahead=40 / rc=2pass / mbtree=0 / bitrate=5000 / ratetol=1.0 / qcomp=0.65 / qpmin=0 / qpmax=40 / qpstep=4 / cplxblur=20.0 / qblur=0.5 / vbv_maxrate=50000 / vbv_bufsize=50000 / nal_hrd=none / ip_ratio=1.25 / pb_ratio=1.25 / aq=1:0.65
Language                                 : English
Default                                  : Yes
Forced                                   : No

Audio #1
ID                                       : 2
Format                                   : AC-3
Format/Info                              : Audio Coding 3
Mode extension                           : CM (complete main)
Format settings, Endianness              : Big
Codec ID                                 : A_AC3
Duration                                 : 2h 10mn
Bit rate mode                            : Constant
Bit rate                                 : 192 Kbps
Channel count                            : 2 channels
Channel positions                        : Front: L R
Sampling rate                            : 48.0 KHz
Bit depth                                : 16 bits
Compression mode                         : Lossy
Stream size                              : 179 MiB (3%)
Title                                    : 2.0 @ 192 кб/с - двоголосий закадровий, компанія "Кіт"
Language                                 : Ukrainian
Default                                  : Yes
Forced                                   : No

Audio #2
ID                                       : 3
Format                                   :
Format/Info                              : Digital Theater Systems
Mode                                     : 16
Format settings, Endianness              : Big
Codec ID                                 : A_DTS
Duration                                 : 2h 10mn
Bit rate mode                            : Constant
Bit rate                                 : 1 509 Kbps
Channel count                            : 6 channels
Channel positions                        : Front: L C R, Side: L R, LFE
Sampling rate                            : 48.0 KHz
Bit depth                                : 24 bits
Compression mode                         : Lossy
Delay relative to video                  : 11ms
Stream size                              : 1.38 GiB (22%)
Title                                    : 5.1 @ 1536 кб/с - оригінал
Language                                 : French
Default                                  : No
Forced                                   : No

Audio #3
ID                                       : 4
Format                                   : AC-3
Format/Info                              : Audio Coding 3
Format profile                           : Dolby Digital
Mode extension                           : CM (complete main)
Format settings, Endianness              : Big
Codec ID                                 : A_AC3
Duration                                 : 2h 10mn
Bit rate mode                            : Constant
Bit rate                                 : 192 Kbps
Channel count                            : 2 channels
Channel positions                        : Front: L R
Sampling rate                            : 48.0 KHz
Bit depth                                : 16 bits
Compression mode                         : Lossy
Stream size                              : 179 MiB (3%)
Title                                    : 2.0 @ 192 кб/с - коментарі
Language                                 : English
Default                                  : No
Forced                                   : No

Text #1
ID                                       : 5
Format                                   : UTF-8
Codec ID                                 : S_TEXT/UTF8
Codec ID/Info                            : UTF-8 Plain Text
Title                                    : повні
Language                                 : Ukrainian
Default                                  : No
Forced                                   : No

Text #2
ID                                       : 6
Format                                   : UTF-8
Codec ID                                 : S_TEXT/UTF8
Codec ID/Info                            : UTF-8 Plain Text
Title                                    : повні
Language                                 : French
Default                                  : No
Forced                                   : No

Text #3
ID                                       : 7
Format                                   : UTF-8
Codec ID                                 : S_TEXT/UTF8
Codec ID/Info                            : UTF-8 Plain Text
Title                                    : форсовані
Language                                 : English
Default                                  : No
Forced                                   : No

Text #4
ID                                       : 8
Format                                   : UTF-8
Codec ID                                 : S_TEXT/UTF8
Codec ID/Info                            : UTF-8 Plain Text
Title                                    : повні
Language                                 : English
Default                                  : No
Forced                                   : No

Menu
00:00:00.000                             : en:00:00:00.000
00:03:55.777                             : en:00:03:55.777
00:11:47.081                             : en:00:11:47.081
00:18:55.801                             : en:00:18:55.801
00:27:43.537                             : en:00:27:43.537
00:34:46.334                             : en:00:34:46.334
00:45:44.367                             : en:00:45:44.367
00:53:07.893                             : en:00:53:07.893
01:00:17.030                             : en:01:00:17.030
01:09:55.233                             : en:01:09:55.233
01:16:29.043                             : en:01:16:29.043
01:22:13.095                             : en:01:22:13.095
01:33:51.376                             : en:01:33:51.376
01:40:46.958                             : en:01:40:46.958
01:46:55.492                             : en:01:46:55.492
01:57:12.776                             : en:01:57:12.776
Скріншоти:







Подяки
п. MAKAPOHHIK, Vasua95, OlegCena та karvai0 за український звук
п. smisha_ за українські субтитри




Джерело: &


 Трекер:    Зареєстрований   

Завантажити / скачати фільм українською



відео для новачків



 Зареєстрований:   2014-04-23 00:28
 Розмір:   6.28 GB 
 Оцінка фільму:   9.9/10 (Голосів: 9)
   
Інші релізи
   Пожежі / Incendies (2010) Ukr/Fra | Sub Ukr/Fra/Eng karvai0  7 / 0   2.18 GB   2014-03-26 22:36 
OlehPol 
Новенький


З нами з: 13.01.09
Востаннє: 03.12.16
Повідомлень: 9

2014-04-23 18:17  
Шкода, що раніше подививсь російською. Але кіно якісне, цікаве. Раджу.
Ваш часовий пояс: GMT + 2 Години

Нова тема   Відповісти