Завантажити та скачати торренти українською


Димна Суміш | Дискографія (4 альбоми) (2005-2010) [FLAC] | Grunge

Нові коментарі

Нова тема   Відповісти
Автор Повідомлення
gosha.samovar 
VIP


З нами з: 08.09.10
Востаннє: 10.12.16
Повідомлень: 400

2014-04-22 23:20  
Димна Суміш | Дискографія (4 альбоми) (2005-2010) [FLAC] | Grunge

Димна Суміш | Дискографія (4 альбоми) (2005-2010) [FLAC] | Grunge


Стиль: Grunge
Країна, місто: Україна, Чернігів
Сайти: Офіційний сайт
2005 - Ти живий


01. Разом
02. Певно
03. Ти живий
04. Протидія
05. Герой
06. Говінда
07. Стіна
08. Жити знову
09. Молоток
Видавець: JRC (JRC 05086-2)
Виконавці:
    Саша Чемеров (вокал, віровець, каратали)
    Олександр Гущин (барабани)
    Сергій Мартинов (гітара)
    Ігор Гержина (бас гітара)
EAC log
Exact Audio Copy V1.0 beta 3 from 29. August 2011

Отчёт EAC об извлечении, выполненном 14. марта 2014, 13:36

Димна Суміш / Ти живий

Дисковод: PHILIPS SPD2519T Adapter: 2 ID: 0

Режим чтения : Достоверность
Использование точного потока : Да
Отключение кэша аудио : Да
Использование указателей C2 : Нет

Коррекция смещения при чтении : 6
Способность читать области Lead-in и Lead-out : Нет
Заполнение пропущенных сэмплов тишиной : Да
Удаление блоков с тишиной в начале и конце : Нет
При вычислениях CRC использовались нулевые сэмплы : Да
Интерфейс : Встроенный Win32-интерфейс для Win NT/2000

Выходной формат : Пользовательский кодировщик
Выбранный битрейт : 1024 kBit/s
Качество : Высокий
Добавление ID3-тега : Нет
Утилита сжатия : D:\soft_2\EAC\Exact Audio Copy\Flac\flac.exe
Дополнительные параметры : -V -8 -T "Date=%year%" -T "Genre=%genre%" %source%

TOC извлечённого CD

Трек | Старт | Длительность | Начальный сектор | Конечный сектор
---------------------------------------------------------------------
1 | 0:00.00 | 3:47.05 | 0 | 17029
2 | 3:47.05 | 4:01.33 | 17030 | 35137
3 | 7:48.38 | 3:31.66 | 35138 | 51028
4 | 11:20.29 | 4:07.23 | 51029 | 69576
5 | 15:27.52 | 3:56.00 | 69577 | 87276
6 | 19:23.52 | 3:29.61 | 87277 | 103012
7 | 22:53.38 | 4:42.22 | 103013 | 124184
8 | 27:35.60 | 1:55.74 | 124185 | 132883
9 | 29:31.59 | 3:44.26 | 132884 | 149709

Характеристики диапазона извлечения и сообщения об ошибках

Выбранный диапазон

Имя файла N:\Роздачі\Димна Суміш\2005 - Ти живий\Димна Суміш - Ти живий.wav

Копирование прервано

Конец отчёта

==== Контрольная сумма отчёта BF3DCF25FC574C3C3278D0DD0C67F73F896FAF0253B30888F823F4958EA62707 ====

------------------------------------------------------------

Exact Audio Copy V1.0 beta 3 from 29. August 2011

Отчёт EAC об извлечении, выполненном 14. марта 2014, 14:11

Димна Суміш / Ти живий

Дисковод: HL-DT-STDVD-RAM GSA-H58N Adapter: 0 ID: 0

Режим чтения : Достоверность
Использование точного потока : Да
Отключение кэша аудио : Да
Использование указателей C2 : Нет

Коррекция смещения при чтении : 102
Способность читать области Lead-in и Lead-out : Нет
Заполнение пропущенных сэмплов тишиной : Да
Удаление блоков с тишиной в начале и конце : Нет
При вычислениях CRC использовались нулевые сэмплы : Да
Интерфейс : Встроенный Win32-интерфейс для Win NT/2000

Выходной формат : Пользовательский кодировщик
Выбранный битрейт : 1024 kBit/s
Качество : Высокий
Добавление ID3-тега : Нет
Утилита сжатия : D:\soft_2\EAC\Exact Audio Copy\Flac\flac.exe
Дополнительные параметры : -V -8 -T "Date=%year%" -T "Genre=%genre%" %source%

TOC извлечённого CD

Трек | Старт | Длительность | Начальный сектор | Конечный сектор
---------------------------------------------------------------------
1 | 0:00.00 | 3:47.05 | 0 | 17029
2 | 3:47.05 | 4:01.33 | 17030 | 35137
3 | 7:48.38 | 3:31.66 | 35138 | 51028
4 | 11:20.29 | 4:07.23 | 51029 | 69576
5 | 15:27.52 | 3:56.00 | 69577 | 87276
6 | 19:23.52 | 3:29.61 | 87277 | 103012
7 | 22:53.38 | 4:42.22 | 103013 | 124184
8 | 27:35.60 | 1:55.74 | 124185 | 132883
9 | 29:31.59 | 3:44.26 | 132884 | 149709

Характеристики диапазона извлечения и сообщения об ошибках

Выбранный диапазон

Имя файла N:\Роздачі\Димна Суміш\2005 - Ти живий\Димна Суміш - Ти живий.wav

Пиковый уровень 100.0 %
Скорость извлечения 2.6 X
Качество диапазона 100.0 %
CRC теста 327351BA
CRC копии 327351BA
Копирование... OK

Ошибок не произошло

AccurateRip: сводка

Трек 1 отсутствует в базе данных
Трек 2 отсутствует в базе данных
Трек 3 отсутствует в базе данных
Трек 4 отсутствует в базе данных
Трек 5 отсутствует в базе данных
Трек 6 отсутствует в базе данных
Трек 7 отсутствует в базе данных
Трек 8 отсутствует в базе данных
Трек 9 отсутствует в базе данных

Ни одного трека нет в базе AccurateRip

Конец отчёта

==== Контрольная сумма отчёта A5C9E7D8B6B6D337EB364ED9F071224666FBE1A5C037C8D8D80A619BE3181C04 ====
Спектр
Тривалість: 00:33:16
Бітрейт: 932 кб/с
Мова: українська, окрім 06 - англійська (?)
2008 - В Країні Ілюзій


01. В Країні Ілюзій
02. Листи
03. Ні
04. Школа
05. Психоделічні краї
06. Земля-Небо
07. Р`Н`Р
08. Океан
09. Вкрай Стомлений
10. Інший Світ
11. Сльози
12. Хіппі
13. Молоток
Видавець: Vesna Music (NMCCD - 0131)
Виконавці:
    Саша Чемеров - вокал, теремін (5), гітара (6)
    Сергій Мартинов - гітара, сітар (2)
    Ігор Гержина - бас
    Олег Фєдосов - барабани
    в країні ілюзій на барабанах грав Валерій Дерев'янський
EAC log
Exact Audio Copy V1.0 beta 3 from 29. August 2011

Отчёт EAC об извлечении, выполненном 28. августа 2013, 14:53

Димна Суміш / В Країні Ілюзій

Дисковод: PHILIPS SPD2519T Adapter: 2 ID: 0

Режим чтения : Достоверность
Использование точного потока : Да
Отключение кэша аудио : Да
Использование указателей C2 : Нет

Коррекция смещения при чтении : 6
Способность читать области Lead-in и Lead-out : Нет
Заполнение пропущенных сэмплов тишиной : Да
Удаление блоков с тишиной в начале и конце : Нет
При вычислениях CRC использовались нулевые сэмплы : Да
Интерфейс : Встроенный Win32-интерфейс для Win NT/2000

Выходной формат : Пользовательский кодировщик
Выбранный битрейт : 1024 kBit/s
Качество : Высокий
Добавление ID3-тега : Нет
Утилита сжатия : D:\soft_2\EAC\Exact Audio Copy\Flac\flac.exe
Дополнительные параметры : -V -8 -T "Date=%year%" -T "Genre=%genre%" %source%

TOC извлечённого CD

Трек | Старт | Длительность | Начальный сектор | Конечный сектор
---------------------------------------------------------------------
1 | 0:00.00 | 3:20.54 | 0 | 15053
2 | 3:20.54 | 4:08.36 | 15054 | 33689
3 | 7:29.15 | 2:46.32 | 33690 | 46171
4 | 10:15.47 | 2:49.30 | 46172 | 58876
5 | 13:05.02 | 4:28.19 | 58877 | 78995
6 | 17:33.21 | 2:07.29 | 78996 | 88549
7 | 19:40.50 | 3:18.45 | 88550 | 103444
8 | 22:59.20 | 4:08.35 | 103445 | 122079
9 | 27:07.55 | 2:41.07 | 122080 | 134161
10 | 29:48.62 | 3:16.26 | 134162 | 148887
11 | 33:05.13 | 3:48.08 | 148888 | 165995
12 | 36:53.21 | 0:56.46 | 165996 | 170241
13 | 37:49.67 | 5:01.17 | 170242 | 192833

Характеристики диапазона извлечения и сообщения об ошибках

Выбранный диапазон

Имя файла N:\Роздачі\Димна Суміш\2008 - В Країні Ілюзій\Димна Суміш - В Країні Ілюзій.wav

Пиковый уровень 97.7 %
Скорость извлечения 5.4 X
Качество диапазона 100.0 %
CRC теста 0F82D85D
CRC копии 0F82D85D
Копирование... OK

Ошибок не произошло

AccurateRip: сводка

Трек 1 : извлечено точно (доверие 1) [655B9D31] (AR v2)
Трек 2 точность не определена (достоверность 1) [FA0D7D4C], AccurateRip вернул [3AA0AB6A] (AR v2)
Трек 3 : извлечено точно (доверие 1) [E751D0AA] (AR v2)
Трек 4 : извлечено точно (доверие 1) [F296CD34] (AR v2)
Трек 5 : извлечено точно (доверие 1) [E36B756E] (AR v2)
Трек 6 : извлечено точно (доверие 1) [1FDC0A34] (AR v2)
Трек 7 : извлечено точно (доверие 1) [1B1BD845] (AR v2)
Трек 8 точность не определена (достоверность 1) [B76A04AE], AccurateRip вернул [84207BD5] (AR v2)
Трек 9 : извлечено точно (доверие 1) [69CAF445] (AR v2)
Трек 10 : извлечено точно (доверие 1) [D538A230] (AR v2)
Трек 11 точность не определена (достоверность 1) [9289BD24], AccurateRip вернул [32D01864] (AR v2)
Трек 12 : извлечено точно (доверие 1) [FB9199ED] (AR v2)
Трек 13 точность не определена (достоверность 1) [BF508BEA], AccurateRip вернул [8B1155B5] (AR v2)

9 трек(и) скопированы точно
4 трек(и) не удалось проверить на точность

Некоторые треки не прошли проверку на точность

Конец отчёта

==== Контрольная сумма отчёта 45CA0268702E01276B17EFAC9C7F51AA5048C087AD581F1514D11F8C6917BF71 ====
Спектр
Тривалість: 00:42:51
Бітрейт: 984 кб/с
Мова: українська
2009 - Димна Суміш


01. Кращий Друг Самурая
02. Кожної Весни
03. Повмирай Зі Мною
04. Танцюй Танцюй
05. Все В Його Вухах
06. Згадуй Бійся Плач І Зви
07. Бийся За Життя
08. Шукай
09. Карма
10. Друг Повернись
11. Я Один
12. На Ножах
13. Геть
14. R`N`R (bonus RMX)
Видавець: Астра Рекордс (55269)
Виконавці:
    і. гержина - бас
    с. мартинов - гітара, сітар, фісгармонія, перкусія
    о. федосов - барабани, перкусія
    special guest євген - minimoog, рояль, farfisa organ
EAC log
Exact Audio Copy V1.0 beta 3 from 29. August 2011

Отчёт EAC об извлечении, выполненном 28. августа 2013, 14:23

Димна Суміш / Димна Суміш

Дисковод: PHILIPS SPD2519T Adapter: 2 ID: 0

Режим чтения : Достоверность
Использование точного потока : Да
Отключение кэша аудио : Да
Использование указателей C2 : Нет

Коррекция смещения при чтении : 6
Способность читать области Lead-in и Lead-out : Нет
Заполнение пропущенных сэмплов тишиной : Да
Удаление блоков с тишиной в начале и конце : Нет
При вычислениях CRC использовались нулевые сэмплы : Да
Интерфейс : Встроенный Win32-интерфейс для Win NT/2000

Выходной формат : Пользовательский кодировщик
Выбранный битрейт : 1024 kBit/s
Качество : Высокий
Добавление ID3-тега : Нет
Утилита сжатия : D:\soft_2\EAC\Exact Audio Copy\Flac\flac.exe
Дополнительные параметры : -V -8 -T "Date=%year%" -T "Genre=%genre%" %source%

TOC извлечённого CD

Трек | Старт | Длительность | Начальный сектор | Конечный сектор
---------------------------------------------------------------------
1 | 0:00.00 | 4:05.67 | 0 | 18441
2 | 4:05.67 | 2:57.05 | 18442 | 31721
3 | 7:02.72 | 6:08.46 | 31722 | 59367
4 | 13:11.43 | 3:31.69 | 59368 | 75261
5 | 16:43.37 | 3:23.21 | 75262 | 90507
6 | 20:06.58 | 3:44.24 | 90508 | 107331
7 | 23:51.07 | 3:54.53 | 107332 | 124934
8 | 27:45.60 | 4:15.62 | 124935 | 144121
9 | 32:01.47 | 2:38.44 | 144122 | 156015
10 | 34:40.16 | 3:28.24 | 156016 | 171639
11 | 38:08.40 | 3:51.51 | 171640 | 189015
12 | 42:00.16 | 4:24.34 | 189016 | 208849
13 | 46:24.50 | 3:59.31 | 208850 | 226805
14 | 50:24.06 | 8:51.07 | 226806 | 266637

Характеристики диапазона извлечения и сообщения об ошибках

Выбранный диапазон

Имя файла N:\Роздачі\Димна Суміш\2009 - Димна Суміш\Димна Суміш - Димна Суміш.wav

Пиковый уровень 100.0 %
Скорость извлечения 7.6 X
Качество диапазона 100.0 %
CRC теста 43FEC790
CRC копии 43FEC790
Копирование... OK

Ошибок не произошло

AccurateRip: сводка

Трек 1 отсутствует в базе данных
Трек 2 отсутствует в базе данных
Трек 3 отсутствует в базе данных
Трек 4 отсутствует в базе данных
Трек 5 отсутствует в базе данных
Трек 6 отсутствует в базе данных
Трек 7 отсутствует в базе данных
Трек 8 отсутствует в базе данных
Трек 9 отсутствует в базе данных
Трек 10 отсутствует в базе данных
Трек 11 отсутствует в базе данных
Трек 12 отсутствует в базе данных
Трек 13 отсутствует в базе данных
Трек 14 отсутствует в базе данных

Ни одного трека нет в базе AccurateRip

Конец отчёта

==== Контрольная сумма отчёта 9148E5312816CF54181198CB38F62DF868F5C6C0E44E46C72078E4F91DE3214F ====
Спектр
Тривалість: 00:59:15
Бітрейт: 974 кб/с
Мова: українська
2010 - Live Improvisation


01. Live Improvisation
Видавець:інтернет-реліз
Виконавці:
    Саша Чемеров - вокал, гітара, перкусія
    Сергій Мартинов - гітара
    Ігор Гержіна - бас
    Олег Федосов - барабани
    запрошений музикант: Роман Гриньків - бандура
Спектр
[/URL]
Тривалість: 00:29:16
Бітрейт: 1006 кб/с
Мова: відсутня
Тривалість: 02:44:38
Мова: українська, англійська, відсутня
Аудіо-кодек: FLAC
Бітрейт: 932-1006 кб/с
Джерело: Власні диски, окрім 2010 - Live Improvisation (реліз від Lev)
Роздача містить скани у якості 600 dpi


Золотий реліз (завантажене не впливає на рейтинг)
 Трекер:    Зареєстрований   

Завантажити / скачати українську музику



відео для новачків



 Зареєстрований:   2014-04-22 23:20
 Розмір:   1.27 GB 
 Оцінка музики:   10/10 (Голосів: 13)
   
ssTAss 
Модератор музики


З нами з: 05.07.08
Востаннє: 11.12.16
Повідомлень: 10958

2014-04-22 23:45  
gosha.samovar
гарний реліз
маю до Вас одне маленьке прохання - використовуйте наш хостинг зображень http://img.hurtom.com/ , бо інші мають властивість пропадати

gosha.samovar 
VIP


З нами з: 08.09.10
Востаннє: 10.12.16
Повідомлень: 400

2014-04-22 23:52  
Добре, буду використовувати хостинг Гуртом. Хоча, той, що я використовую - перевірений роками).
Цитата:
гарний реліз

Дякую!

djlibra 
Новенький


З нами з: 26.01.14
Востаннє: 29.07.15
Повідомлень: 4

2014-04-29 04:05  
The best of the best rock band in Ukraine)
gosha.samovar 
VIP


З нами з: 08.09.10
Востаннє: 10.12.16
Повідомлень: 400

2014-04-29 09:16  
djlibra написано:
The best of the best rock band in Ukraine)

100 %

gosha.samovar 
VIP


З нами з: 08.09.10
Востаннє: 10.12.16
Повідомлень: 400

2014-05-26 16:24  
Інтерв'ю з Сашою Чемеровим:

Ваш часовий пояс: GMT + 2 Години

Нова тема   Відповісти