Завантажити та скачати торренти українською


Хранитель часу / Hugo (2011) 1080p Ukr/Eng | Sub Ukr/Eng

Нові коментарі

Нова тема   Відповісти
Автор Повідомлення
leroykendall 
Модератор HD


З нами з: 03.01.11
Востаннє: 20.11.16
Повідомлень: 749

2014-04-21 22:19  
Хранитель часу / Hugo (2011) 1080p Ukr/Eng | Sub Ukr/Eng

Хранитель часу / Hugo (2011) 1080p Ukr/Eng | Sub Ukr/Eng

«One of the most legendary directors of our time takes you on an extraordinary adventure.»


Жанр: пригодницький, драма, сімейний
Країна: США



Кіностудія / кінокомпанія: Paramount Pictures, GK Films, Infinitum Nihil
Режисер: Мартін Скорсезе (Martin Scorsese)
Актори: Аса Баттерфілд (Asa Butterfield), Бен Кінгслі (Ben Kingsley), Саша Барон Коен (Sacha Baron Cohen), Хлоя Моретц (Chloe Moretz), Рей Вінстон (Ray Winstone), Емілі Мортімер (Emily Mortimer), Крістофер Лі (Christopher Lee)

Сюжет:
Дія розгортається у Франції початку 30-х років минулого століття. Головний герой, хлопчик-сирота Хьюго, який проживає в стінах паризького вокзалу зі своїм дядьком-алкоголіком, випадково знаходить таємничий механізм, створений знаменитим фільммейкером Жоржем Мельєс. Ця знахідка запускає ланцюгову реакцію дивовижних подій, які в кінцевому підсумку допоможуть Хьюго розгадати таємницю його покійного батька.


Тривалість: 02:06:21
Якість: 1080p (ріп від HDChina)
Відео:
кодек:
розмір кадру: 1920x1080
бітрейт: 13361 кб/с

Аудіо # 1:
мова: українська
переклад: професійний дубльований
кодек: 5.1
бітрейт: 448 кб/с

Аудіо # 2:
мова: англійська
переклад: оригінал
кодек: 5.1
бітрейт: 1536 кб/с

Субтитри # 1:
мова: українська
тип: програмні (м'які)
формат: *.srt

Субтитри # 2:
мова: англійська
тип: програмні (м'які)
формат: *.srt

Збережені оригінальні чаптери як на Blu-ray
MediaInfo
Код:
General
Unique ID                                : 189852516975286840944529666467530619084 (0x8ED443C664CFDA9FB3E5FA46C25938CC)
Complete name                            : V:\Hugo (2011) [Ukr, Eng] 1080p [Hurtom] by leroykendall.mkv
Format                                   : Matroska
Format version                           : Version 4 / Version 2
File size                                : 13.5 GiB
Duration                                 : 2h 6mn
Overall bit rate                         : 15.3 Mbps
Movie name                               : Hugo (2011) [Ukr, Eng] 1080p [Hurtom] by leroykendall
Encoded date                             : UTC 2014-04-21 16:24:45
Writing application                      : mkvmerge v6.2.0 ('Promised Land') built on Apr 28 2013 12:22:01
Writing library                          : libebml v1.3.0 + libmatroska v1.4.0

Video
ID                                       : 1
Format                                   : AVC
Format/Info                              : Advanced Video Codec
Format profile                           : [email protected]
Format settings, CABAC                   : Yes
Format settings, ReFrames                : 4 frames
Codec ID                                 : V_MPEG4/ISO/AVC
Duration                                 : 2h 6mn
Bit rate                                 : 13.4 Mbps
Width                                    : 1 920 pixels
Height                                   : 1 080 pixels
Display aspect ratio                     : 16:9
Frame rate mode                          : Constant
Frame rate                               : 23.976 fps
Color space                              : YUV
Chroma subsampling                       : 4:2:0
Bit depth                                : 8 bits
Scan type                                : Progressive
Bits/(Pixel*Frame)                       : 0.269
Stream size                              : 11.5 GiB (85%)
Title                                    : Hugo (2011) 1080p [Hurtom]
Writing library                          : core 120 r2164 da19765
Encoding settings                        : cabac=1 / ref=4 / deblock=1:-3:-3 / analyse=0x3:0x133 / me=umh / subme=10 / psy=1 / psy_rd=1.00:0.00 / mixed_ref=1 / me_range=48 / chroma_me=1 / trellis=2 / 8x8dct=1 / cqm=0 / deadzone=21,11 / fast_pskip=1 / chroma_qp_offset=-2 / threads=12 / sliced_threads=0 / nr=0 / decimate=0 / interlaced=0 / bluray_compat=0 / constrained_intra=0 / bframes=6 / b_pyramid=2 / b_adapt=2 / b_bias=0 / direct=3 / weightb=1 / open_gop=0 / weightp=2 / keyint=250 / keyint_min=23 / scenecut=40 / intra_refresh=0 / rc_lookahead=60 / rc=2pass / mbtree=1 / bitrate=13361 / ratetol=1.0 / qcomp=0.60 / qpmin=0 / qpmax=69 / qpstep=4 / cplxblur=20.0 / qblur=0.5 / vbv_maxrate=50000 / vbv_bufsize=50000 / nal_hrd=none / ip_ratio=1.50 / aq=1:1.00
Language                                 : English
Default                                  : No
Forced                                   : No

Audio #1
ID                                       : 2
Format                                   : AC-3
Format/Info                              : Audio Coding 3
Mode extension                           : CM (complete main)
Format settings, Endianness              : Big
Codec ID                                 : A_AC3
Duration                                 : 2h 6mn
Bit rate mode                            : Constant
Bit rate                                 : 448 Kbps
Channel count                            : 6 channels
Channel positions                        : Front: L C R, Side: L R, LFE
Sampling rate                            : 48.0 KHz
Bit depth                                : 16 bits
Compression mode                         : Lossy
Delay relative to video                  : 30ms
Stream size                              : 405 MiB (3%)
Title                                    : 5.1 @ 448 кб/с - професійний дубльований переклад, DVD
Language                                 : Ukrainian
Default                                  : Yes
Forced                                   : No

Audio #2
ID                                       : 3
Format                                   :
Format/Info                              : Digital Theater Systems
Mode                                     : 16
Format settings, Endianness              : Big
Codec ID                                 : A_DTS
Duration                                 : 2h 6mn
Bit rate mode                            : Constant
Bit rate                                 : 1 509 Kbps
Channel count                            : 6 channels
Channel positions                        : Front: L C R, Side: L R, LFE
Sampling rate                            : 48.0 KHz
Bit depth                                : 24 bits
Compression mode                         : Lossy
Delay relative to video                  : 11ms
Stream size                              : 1.33 GiB (10%)
Title                                    : 5.1 @ 1536 кб/с - оригінал
Language                                 : English
Default                                  : No
Forced                                   : No

Text #1
ID                                       : 4
Format                                   : UTF-8
Codec ID                                 : S_TEXT/UTF8
Codec ID/Info                            : UTF-8 Plain Text
Title                                    : Українські субтитри - DVD
Language                                 : Ukrainian
Default                                  : No
Forced                                   : No

Text #2
ID                                       : 5
Format                                   : UTF-8
Codec ID                                 : S_TEXT/UTF8
Codec ID/Info                            : UTF-8 Plain Text
Language                                 : English
Default                                  : No
Forced                                   : No

Menu
00:00:00.000                             : en:Chapter 1
00:09:35.533                             : en:Chapter 2
00:17:20.665                             : en:Chapter 3
00:23:32.911                             : en:Chapter 4
00:30:34.541                             : en:Chapter 5
00:38:26.262                             : en:Chapter 6
00:47:36.270                             : en:Chapter 7
00:55:37.543                             : en:Chapter 8
01:03:43.695                             : en:Chapter 9
01:12:46.862                             : en:Chapter 10
01:19:59.169                             : en:Chapter 11
01:27:10.100                             : en:Chapter 12
01:33:03.495                             : en:Chapter 13
01:42:41.280                             : en:Chapter 14
01:53:47.779                             : en:Chapter 15
01:59:58.441                             : en:Chapter 16
Скріншоти:




Джерело:


 Трекер:    Зареєстрований   

Завантажити / скачати фільм українською



відео для новачків



 Зареєстрований:   2014-04-21 22:19
 Розмір:   13.52 GB 
 Оцінка фільму:   9.5/10 (Голосів: 4)
   
Інші релізи
   Хранитель часу / Hugo (2011) 2xUkr patriot2305  4 / 0   2.18 GB   2015-01-13 15:21 
   Хранитель часу / Hugo (2011) 720p Ukr/Eng | Sub Ukr/Eng Dim-ON  3 / 0   6.92 GB   2012-04-27 16:27 
   Хранитель часу / Hugo (2011) AVC 3D Video | Ліцензія seroga13  2 / 0   2.24 GB   2012-04-24 18:25 
Ваш часовий пояс: GMT + 2 Години

Нова тема   Відповісти