Завантажити та скачати торренти українською


Братство вовка (Режисерська версія) / Le Pacte Des Loups (Director`s Cut) (2001) HDDVDRemux 1080p 2xUkr/Fre

Нові коментарі

Нова тема   Відповісти
Останній раз роздавалося kysel (2016-12-08)
Автор Повідомлення
kysel 
Частий відвідувач


З нами з: 28.06.12
Востаннє: 08.12.16
Повідомлень: 29

2014-04-20 16:28  
Братство вовка (Режисерська версія) / Le Pacte Des Loups [Director`s Cut] (2001) HDDVDRemux 1080p 2xUkr/Fre

Братство вовка (Режисерська версія) / Le Pacte Des Loups (Director`s Cut) (2001) HDDVDRemux 1080p 2xUkr/Fre


Жанр: екшн, жахи, містика
Країна: Франція



Кінокомпанія: Canal+, Davis-Films, Eskwad, Natexis Banques Populaires Images, Studio Image Soficas, TF1 Films Production.
Режисер: Крістоф Ган/Christophe Gans
Актори: Семюель ле Б'ян /Samuel Le Bihan, Венсан Кассель /Vincent Cassel, Марк Дакаскос /Mark Dacascos, Моніка Беллуччі /Monica Bellucci, Емілі Дек'єнн /Émilie Dequenne, Джеремі Реньєр /Jérémie Renier та ін.

Сюжет:
Кіно базується на реальній історії величезного вовка-мутанта, що тероризував Францію в середині XVIII століття.
Потвора декілька місяців нападала на жінок і дітей, і ніхто із уцілілих людей не зміг ні завдати йому шкоди, ні навіть як слід розгледіти його. За особистою
вказівкою короля його спеціальний посланець прибуває на місце трагедії, щоб дослідити невідомого досі звіра.
Після того, як вовк був відловлений і вбитий, опудало його провезли всіма французькими містами. Прості французькі християни повірили в цю історію. Але лише сьогодні ми дізнаємось, що ж насправді відбулось в XVIII столітті в маленькій французькій провінції ...



Тривалість: 02:30:19
Якість: HDDVDRemux
Відео:
кодек: VC-1
розмір кадру: 1920 х 1080
бітрейт: 18,6 Мбіт/с

Аудіо # 1:
мова: українська
переклад: багатоголосий закадровий
кодек: 5.1
бітрейт: 384 кб/с

Аудіо # 2:
мова: українська
переклад: багатоголосий закадровий
кодек: 5.1
бітрейт: 384 кб/с

Аудіо # 3:
мова: французька
переклад: оригінал
кодек: 5.1
бітрейт: 1536 кб/с

Джерело озвучення:

Аудіо # 1 - .

Аудіо # 2 - "Так Треба Продакшн" на замовлення

Субтитри:
мова: українська (до місць без перекладу)
тип: програмні (м'які)
формат: *.srt
MediaInfo
General
Complete name : G:\Завантаження\Le Pacte des Loups.Dir.Cut.2001.HDDVD-Remux.1080p.vc1.2xUkr.Fre.sub.Ukr.mkv
Format : Matroska
File size : 22.4 GiB
Duration : 2h 30mn
Overall bit rate : 21.3 Mbps
Encoded date : UTC 2014-04-20 18:56:07
Writing application : mkvmerge v6.0.0 ('Coming Up For Air') built on Jan 20 2013 09:52:00
Writing library : libebml v1.3.0 + libmatroska v1.4.0

Video
ID : 1
Format : VC-1
Format profile : [email protected]
Codec ID : WVC1
Codec ID/Hint : Microsoft
Duration : 2h 30mn
Bit rate : 18.6 Mbps
Width : 1 920 pixels
Height : 1 080 pixels
Display aspect ratio : 16:9
Frame rate : 23.976 fps
Original frame rate : 29.970 fps
Resolution : 8 bits
Colorimetry : 4:2:0
Scan type : Progressive
Bits/(Pixel*Frame) : 0.375
Stream size : 19.6 GiB (87%)
Title : Le Pacte des Loups (Dir.cut)
Language : French

Audio #1
ID : 2
Format : AC-3
Format/Info : Audio Coding 3
Format_Settings_ModeExtension : CM (complete main)
Codec ID : A_AC3
Duration : 2h 30mn
Bit rate mode : Constant
Bit rate : 384 Kbps
Channel(s) : 6 channels
Channel positions : Front: L C R, Side: L R, LFE
Sampling rate : 48.0 KHz
Video delay : 6ms
Stream size : 413 MiB (2%)
Title : 5.1, 384 Kbps "1+1"
Language : Ukrainian

Audio #2
ID : 3
Format : AC-3
Format/Info : Audio Coding 3
Format_Settings_ModeExtension : CM (complete main)
Codec ID : A_AC3
Duration : 2h 30mn
Bit rate mode : Constant
Bit rate : 384 Kbps
Channel(s) : 6 channels
Channel positions : Front: L C R, Side: L R, LFE
Sampling rate : 48.0 KHz
Video delay : 6ms
Stream size : 413 MiB (2%)
Title : 5.1, 384 Kbps "Так Треба Продакшн"
Language : Ukrainian

Audio #3
ID : 4
Format :
Format/Info : Digital Theater Systems
Codec ID : A_DTS
Duration : 2h 30mn
Bit rate mode : Constant
Bit rate : 1 510 Kbps
Channel(s) : 6 channels
Channel positions : Front: L C R, Side: L R, LFE
Sampling rate : 48.0 KHz
Resolution : 24 bits
Stream size : 1.59 GiB (7%)
Title : 5.1, 1510 Kbps
Language : French

Text
ID : 5
Format : UTF-8
Codec ID : S_TEXT/UTF8
Codec ID/Info : UTF-8 Plain Text
Title : форсовані (для моментів без перекладу)
Language : Ukrainian
Скріншоти



















Джерело: &

Дякую панам ratbol, Technomate та Merdiff за звукозапис з TV , пану _oles за можливість попрацювати
з аудіодоріжками

Особиста оцінка: 9 - давно не бачив настільки якісне кіно


Золотий реліз (завантажене не впливає на рейтинг)
 Трекер:    Зареєстрований   

Завантажити / скачати фільм українською



відео для новачків



 Зареєстрований:   2014-04-21 06:34
 Розмір:   22.39 GB 
 Оцінка фільму:   10/10 (Голосів: 4)
   
somnambula 
Відео Гуртом - дизайнер
Відео Гуртом - дизайнер


З нами з: 06.11.09
Востаннє: 08.12.16
Повідомлень: 760

2014-04-20 16:57  
в скріни не забувайте додавати тег [img]
Pinguin 
Поважний учасник


З нами з: 08.04.12
Востаннє: 08.12.16
Повідомлень: 190

2014-04-20 18:04  
дуже цікавий фільм. хочеться мати його в НD якості але розмір дуже великий)
720p ніхто часом не збирається робити?

patriot2305 
Почесний гуртомівець


З нами з: 23.04.11
Востаннє: 08.12.16
Повідомлень: 4145

2014-04-20 19:34  
kysel написано:

Аудіо # 4:

мова: англійська

переклад: професійний дубльований

кодек: 5.1

бітрейт: 448 кб/с

Це заборонено правилами, виріжте англійську доріжку і перезалийте торрент....

bot 
робот


З нами з: 30.09.07
Востаннє: 26.05.05
Повідомлень: 16031

2014-04-20 19:35  
Тему перенесено з Фільми в HD до форуму Неоформлене відео


patriot2305

bot 
робот


З нами з: 30.09.07
Востаннє: 26.05.05
Повідомлень: 16031

2014-04-21 06:34  
Тему перенесено з Неоформлене відео до форуму Фільми в HD


patriot2305

igor911 
Відео Гуртом
Відео Гуртом


З нами з: 18.01.08
Востаннє: 08.12.16
Повідомлень: 5193

2014-04-21 16:47  
kysel, на майбутнє рік в назві бери в круглі дужки (), а не в квадратні, форсовані субтитри (тільки на неозвучені місця) в назві теми та заголовку не вказуй, а в пункті "субтитри" обов"язково вказуй, що вони лише на неозвучені місця.
virtus8hur 
Попереджень: 1
Попереджень: 1 


З нами з: 06.02.10
Востаннє: 08.12.16
Повідомлень: 2965

2014-04-21 18:40  
станьте на роздачу, будь-ласка, бо хочеться скачати
Maters 
VIP


З нами з: 27.03.12
Востаннє: 08.12.16
Повідомлень: 1162

2014-04-22 07:44  
Багато помилок в описі. Будб ласка виправте))
kysel написано:

Кіно базується на реальній історії величезного вовка-мутанта, що тероризував Францію в середині XVIII століття.

Потвора декілька месяців нападала на жінок і дітей, і ніхто із уцілілих людей не зміг ні завдати йому шкоди, ні навіть як слід розгледіти його. За особистою

вказівкою короля його спеціальний післанець прибуває на місце трагедії, щоб дослідити невідомого досі звіра.

Після того, як вовк був пійманий і вбитий, опудало його провезливсіма французькими містами. Прості французькі християни повірили в цю історію. Але лише сьогодні ми дізнаємось, що ж насправді відбулось в XVIII столітті в маленькій французькій провінції ...

kysel 
Частий відвідувач


З нами з: 28.06.12
Востаннє: 08.12.16
Повідомлень: 29

2014-04-22 07:59  
igor911
Дякую! Зроблено.

Додано через 35 секунд:

Maters
Дякую! Переписав.

Додано через 2 хвилини 41 секунду:

Pinguin
Якщо буду мати хвильку вільного часу, то зроблю 720p

igor911 
Відео Гуртом
Відео Гуртом


З нами з: 18.01.08
Востаннє: 08.12.16
Повідомлень: 5193

2014-07-06 18:45  
Ось реліз у 720p: http://toloka.to/t57591
Ваш часовий пояс: GMT + 2 Години

Нова тема   Відповісти