Завантажити та скачати торренти українською


Погані чуваки / Покидьки / Bad Ass 2: Bad Asses (2014) 720p Eng | sub Ukr

Нові коментарі

Нова тема   Відповісти
Останній раз роздавалося jaguar_arx (2016-11-10)
Автор Повідомлення
NeetScrool 
Відео Гуртом - фільмокрай
Відео Гуртом - фільмокрай


З нами з: 10.01.13
Востаннє: 10.12.16
Повідомлень: 2228

2014-04-19 21:15  
Погані чуваки / Покидьки / Bad Ass 2: Bad Asses (2014) 720p Eng | sub Ukr

Погані чуваки / Покидьки / Bad Ass 2: Bad Asses (2014) 720p Eng | sub Ukr


Жанр: бойовик, екшн, драма
Країна: США



Кінокомпанія: Sense and Sensibility Ventures, Silver Nitrate
Режисер: Крейґ Мос
Актори: Денні Трехо, Денні Ґловер, Ендрю Дівоф

Сюжет:
Френк Веґа повертається, щоб надерти дупи наркоторговцям, які заполонили Лос-Анджелес. І в цій непростій справі йому допоможе вірний друг Берні!


Тривалість: 01:30:50
Якість:
Відео:
кодек:
розмір кадру: 1280 х 688
бітрейт: 3951 кб/с

Аудіо:
мова: англійська
переклад: оригінал
кодек: 5.1
бітрейт: 384 кб/с

Субтитри:
мова: українська (АйТюнс)
тип: програмні (м'які)
формат: *.srt
MediaInfo
General
Unique ID : 252838908331039938877558153514668358235 (0xBE3700A19E2C6DC7B4BB0A6ABAC57A5B)
Complete name : D:\Фільми\Bad Ass 2 - Bad Asses (2014) 720p\Bad Ass 2 - Bad Asses (2014) 720p.mkv
Format : Matroska
Format version : Version 4 / Version 2
File size : 2.81 GiB
Duration : 1h 30mn
Overall bit rate : 4 423 Kbps
Movie name : Bad Ass 2: Bad Asses (2014)
Encoded date : UTC 2014-04-19 13:57:50
Writing application : mkvmerge v6.8.0 ('Theme for Great Cities') 64bit built on Mar 2 2014 21:34:26
Writing library : libebml v1.3.0 + libmatroska v1.4.1

Video
ID : 1
Format : AVC
Format/Info : Advanced Video Codec
Format profile : [email protected]
Format settings, CABAC : No
Format settings, ReFrames : 2 frames
Codec ID : V_MPEG4/ISO/AVC
Duration : 1h 30mn
Bit rate : 3 951 Kbps
Width : 1 280 pixels
Height : 688 pixels
Display aspect ratio : 1.85:1
Frame rate mode : Constant
Frame rate : 23.976 fps
Color space : YUV
Chroma subsampling : 4:2:0
Bit depth : 8 bits
Scan type : Progressive
Bits/(Pixel*Frame) : 0.187
Stream size : 2.51 GiB (89%)
Title : Bad Ass 2: Bad Asses (2014)
Language : English
Default : Yes
Forced : No
Color primaries : BT.709
Transfer characteristics : BT.709
Matrix coefficients : BT.709

Audio
ID : 2
Format : AC-3
Format/Info : Audio Coding 3
Mode extension : CM (complete main)
Format settings, Endianness : Big
Codec ID : A_AC3
Duration : 1h 30mn
Bit rate mode : Constant
Bit rate : 384 Kbps
Channel count : 6 channels
Channel positions : Front: L C R, Side: L R, LFE
Sampling rate : 48.0 KHz
Bit depth : 16 bits
Compression mode : Lossy
Stream size : 249 MiB (9%)
Title : 5.1 @ 384 kbps
Language : English
Default : Yes
Forced : No

Menu
00:00:00.000 : en:Chapter 1
00:03:39.000 : en:Chapter 2
00:07:05.000 : en:Chapter 3
00:09:13.000 : en:Chapter 4
00:12:28.000 : en:Chapter 5
00:15:20.000 : en:Chapter 6
00:17:31.000 : en:Chapter 7
00:21:23.000 : en:Chapter 8
00:23:10.000 : en:Chapter 9
00:27:31.000 : en:Chapter 10
00:30:29.000 : en:Chapter 11
00:32:48.000 : en:Chapter 12
00:35:49.000 : en:Chapter 13
00:40:33.000 : en:Chapter 14
00:44:05.000 : en:Chapter 15
00:48:54.000 : en:Chapter 16
00:51:49.000 : en:Chapter 17
00:56:11.000 : en:Chapter 18
00:59:25.000 : en:Chapter 19
01:01:31.000 : en:Chapter 20
01:04:40.000 : en:Chapter 21
01:09:12.000 : en:Chapter 22
01:11:33.000 : en:Chapter 23
01:13:55.000 : en:Chapter 24
01:17:20.000 : en:Chapter 25
01:19:49.000 : en:Chapter 26
01:25:26.000 : en:Chapter 27
01:27:08.000 : en:Chapter 28
Скріншоти











Джерело:
Особиста оцінка: 0 - не дивився


 Трекер:    Зареєстрований   

Завантажити / скачати фільм українською



відео для новачків



 Зареєстрований:   2014-04-19 21:15
 Розмір:   2.81 GB 
 Оцінка фільму:   6.8/10 (Голосів: 12)
   
bot 
робот


З нами з: 30.09.07
Востаннє: 26.05.05
Повідомлень: 16048

2014-04-19 21:26  
Тему перенесено з Аніме до форуму Фільми


NeetScrool

bot 
робот


З нами з: 30.09.07
Востаннє: 26.05.05
Повідомлень: 16048

2014-04-20 08:28  
Тему перенесено з Фільми до форуму Фільми в HD


patriot2305

Spawn 182 
Свій


З нами з: 27.07.09
Востаннє: 10.12.16
Повідомлень: 57

2014-04-20 13:07  
Цікаво, а буде українською??? Хтось знає?!
Ваш часовий пояс: GMT + 2 Години

Нова тема   Відповісти