Завантажити та скачати торренти українською


Кінг Конг [Розширена версія] / King Kong [Extended Edition] (2005) HDDVD- 1080p Ukr/Eng | Sub Eng/Fre/Spa

Нові коментарі

Нова тема   Відповісти
Автор Повідомлення
kysel 
Частий відвідувач


З нами з: 28.06.12
Востаннє: 03.12.16
Повідомлень: 29

2014-04-18 21:14  
Кінг Конг [Розширена версія] / King Kong [Extended Edition] (2005) HDDVD- 1080p Ukr/Eng | Sub Eng/Fre/Spa

Кінг Конг [Розширена версія] / King Kong [Extended Edition] (2005) HDDVD- 1080p Ukr/Eng | Sub Eng/Fre/Spa


Жанр: екшн, пригодницький, драма
Країна: Нова Зеландія, США, Німеччина



Кінокомпанія: Universal Pictures, WingNut Films, Big Primate Pictures, MFPV Film
Режисер: Пітер Джексон / Peter Jackson
Актори: Наомі Воттс/Naomi Watts, Джек Блек/Jack Black, Едрієн Броуді/Adrien Brody, Томас Кречман/Thomas Kretschmann, Колін Хенкс/Colin Hanks, Енді Серкіс/Andy Serkis, Івен Парк/Evan Parke, Джеймі Бел/Jamie Bell, Лобо Чен/Lobo Chan, Джон Самнер/John Sumner та ін.

Сюжет:
Рік 1930. Знімальна група на чолі режисера-невдахи Карла Денхема відправляється на пошуки загадкового Острова Черепа недалеко від Суматри,
для вивчення легенд про гігантську горилу по кличці Конг. Після прибуття на місце вони виявляють, що Конг - це справжня істота, котра живе в місцевих лісах, в яких на протязі багатьох віків жили і розвивались інші древні істоти.
На шляху шукачів очікують безліч небезпек і пригод, і лише одній людині із учасників експедиції суджено порозумітись з горилою і "посприяти" її доставці в Нью-Йорк. Та от Конгу така поїздка мабуть не дуже до душі ...


Тривалість: 03:20:07
Якість: HDDVD-
Відео:
кодек:
розмір кадру: 1920 х 816
бітрейт: ~11 Mбіт/с

Аудіо # 1:
мова: українська
переклад: багатоголосий закадровий
кодек: 5.1
бітрейт: 384 кб/с

Аудіо # 2:
мова: англійська
переклад: оригінал
кодек: 5.1
бітрейт: 1536 Кбіт/с

Аудіо # 3:
мова: англійська
переклад: коментарій режисера П. Джексона та продюсера Ф. Боєнса
кодек: OGG
бітрейт: 80 кб/с

Джерело озвучення:
"Так Треба Продакшн" на замовлення

Субтитри:
мова: українська (для моментів без перекладу)
тип: програмні (м'які)
формат: *.srt

Субтитри:
мова: французька
тип: програмні (м'які)
формат: *.ass

Субтитри:
мова: англійська
тип: програмні (м'які)
формат: *.ass

Субтитри:
мова: іспанська
тип: програмні (м'які)
формат: *.ass
MediaInfo
General
Complete name : King.Kong.2005.Dir.Cut.HDDVD-BRrip.1080p..Ukr.Eng sub Ukr.Frenc.Eng.mkv
Format : Matroska
File size : 18.1 GiB
Duration : 3h 20mn
Overall bit rate : 13.0 Mbps
Movie name : King Kong Extended Cut (2005) 1080p HDDVD-BluRay ESiR
Encoded date : UTC 2014-04-16 17:04:37
Writing application : mkvmerge v6.0.0 ('Coming Up For Air') built on Jan 20 2013 09:52:00
Writing library : libebml v1.3.0 + libmatroska v1.4.0
Cover : Yes / Yes / Yes

Video
ID : 1
Format : AVC
Format/Info : Advanced Video Codec
Format profile : [email protected]
Format settings, CABAC : Yes
Format settings, ReFrames : 5 frames
Muxing mode : Container [email protected]
Codec ID : V_MPEG4/ISO/AVC
Duration : 3h 20mn
Bit rate : 10.7 Mbps
Nominal bit rate : 11.0 Mbps
Width : 1 920 pixels
Height : 816 pixels
Display aspect ratio : 2.35:1
Frame rate : 23.976 fps
Resolution : 8 bits
Colorimetry : 4:2:0
Scan type : Progressive
Bits/(Pixel*Frame) : 0.286
Stream size : 15.0 GiB (83%)
Title : Video
Writing library : core 66 r1101M b69548a
Encoding settings : cabac=1 / ref=5 / deblock=1:-3:-3 / analyse=0x3:0x113 / me=umh / subme=9 / psy_rd=0.8:0.8 / mixed_ref=1 / me_range=32 / chroma_me=1 / trellis=2 / 8x8dct=1 / cqm=2 / deadzone=21,11 / chroma_qp_offset=-4 / threads=3 / nr=0 / decimate=1 / mbaff=0 / bframes=3 / b_pyramid=1 / b_adapt=2 / b_bias=0 / direct=3 / wpredb=1 / keyint=250 / keyint_min=25 / scenecut=40(pre) / rc=2pass / bitrate=11000 / ratetol=1.0 / qcomp=0.60 / qpmin=10 / qpmax=51 / qpstep=4 / cplxblur=20.0 / qblur=0.5 / ip_ratio=1.40 / pb_ratio=1.30 / aq=1:0.80

Audio #1
ID : 2
Format : AC-3
Format/Info : Audio Coding 3
Format_Settings_ModeExtension : CM (complete main)
Codec ID : A_AC3
Duration : 3h 20mn
Bit rate mode : Constant
Bit rate : 384 Kbps
Channel(s) : 6 channels
Channel positions : Front: L C R, Side: L R, LFE
Sampling rate : 48.0 KHz
Stream size : 550 MiB (3%)
Title : 5.1 384 kbps [Так Треба Продакшн]
Language : Ukrainian

Audio #2
ID : 3
Format :
Format/Info : Digital Theater Systems
Codec ID : A_DTS
Duration : 3h 20mn
Bit rate mode : Constant
Bit rate : 1 510 Kbps
Channel(s) : 6 channels
Channel positions : Front: L C R, Side: L R, LFE
Sampling rate : 48.0 KHz
Resolution : 24 bits
Stream size : 2.11 GiB (12%)
Title : , 5.1, 1536 kbps

Audio #3
ID : 4
Format : Vorbis
Format settings, Floor : 1
Codec ID : A_VORBIS
Duration : 3h 20mn
Bit rate mode : Constant
Bit rate : 80.0 Kbps
Channel(s) : 2 channels
Sampling rate : 48.0 KHz
Stream size : 115 MiB (1%)
Title : Feature Commentary with Director/Co-Writer/Producer Peter Jackson and Co-Writer/Producer Philippe Boyens
Writing library : libVorbis 1.2 (UTC 2007-06-22)

Text #1
ID : 5
Format : UTF-8
Codec ID : S_TEXT/UTF8
Codec ID/Info : UTF-8 Plain Text
Language : Ukrainian

Text #2
ID : 6
Format : ASS
Codec ID : S_TEXT/ASS
Codec ID/Info : Advanced Sub Station Alpha

Text #3
ID : 7
Format : ASS
Codec ID : S_TEXT/ASS
Codec ID/Info : Advanced Sub Station Alpha
Language : French

Text #4
ID : 8
Format : ASS
Codec ID : S_TEXT/ASS
Codec ID/Info : Advanced Sub Station Alpha
Language : Spanish
Скріншоти










Джерело: &
Особиста оцінка: 10 - без зайвих вагань рекомендую всім!

Пану ESiR дякую за Rip! Пану Romario_O за українську доріжку!


 Трекер:    Зареєстрований   

Завантажити / скачати фільм українською



відео для новачків



 Зареєстрований:   2014-04-18 21:14
 Розмір:   18.13 GB 
 Оцінка фільму:   8.7/10 (Голосів: 10)
   
leroykendall 
Модератор HD


З нами з: 03.01.11
Востаннє: 20.11.16
Повідомлень: 749

2014-04-22 21:19  
Коментарі
kysel написано:
Аудіо # 2

Аудіо # 3

kysel 
Частий відвідувач


З нами з: 28.06.12
Востаннє: 03.12.16
Повідомлень: 29

2014-04-22 22:47  
leroykendall
Thanks Wide grin

-VJ- 
VIP


З нами з: 01.11.09
Востаннє: 30.11.16
Повідомлень: 575

2015-10-11 07:44  
10 років вже пройшло... аж не віриться.
Ваш часовий пояс: GMT + 2 Години

Нова тема   Відповісти