Завантажити та скачати торренти українською


Червоні Хвости / Red Tails (2012) 720p Ukr/Eng | Sub Eng

Нові коментарі

Нова тема   Відповісти
Останній раз роздавалося zmiypvv (2016-12-03)
Автор Повідомлення
BOOGud 
VIP


З нами з: 06.03.12
Востаннє: 11.11.16
Повідомлень: 907

2014-04-13 13:09  
Червоні Хвости / Red Tails (2012) 720p Ukr/Eng | Sub Eng

Червоні Хвости / Red Tails (2012) 720p Ukr/Eng | Sub Eng


Альтернативні постери






Жанр: екшн, історичний, пригодницький, бойовик, драма
Країна: США



Кіностудія / кінокомпанія: Lucasfilm та 20th Century Fox
Режисер: Ентоні Хемінгуей
Актори: Нейт Паркер, Девид Ойєлоуо, Терренс Ховард, Кьюба Гудінг мл., Тристан Уайлдс, Елайджа Келлі, Андре Ройо, Метод Мен, Не-Йо (Ne-Yo), Брайан Кренстон

Сюжет:

Фільм засновано на реальних подіях.

Історія молодого чорношкірого пілота, який перемагаючи расизм і неприязнь, зумів згуртувати братів по крові і створив перший в історії повітряний батальйон, що складається виключно з негрів.


Тривалість: 02:05:00
Якість:
Відео:
кодек:
розмір кадру: 1 280 х 534
бітрейт: 4 361 кб/с

Аудіо # 1:
мова: українська
переклад: двоголосий закадровий |UAVoice
кодек: 2.0
бітрейт: 196 кб/с

Аудіо # 2:
мова: англійська
переклад: оригінал
кодек: 5.1
бітрейт: 448 кб/с

Переклад і озвучення виконано: UAVoice
Переклад: BOOGud.
Редактор: Олексій Мезенцев.
Озвучка: Людмила Швець, Дмитро Урсуляк.
Монтаж та робота зі звуком: Дмитро Урсуляк(BOOGud).
Обкладинки: Данило Земляний ( juicifer)

Джерело озвучення:

UAVoice

БЕЗКОШТОВНО перекладаємо та озвучуємо фільми, серіали та різноманітні відео за вашими побажаннями!

Наш сайт: uavoice.com
А також шукайте нас у Google: uavoicegroup (посилання на групу Вконтакті)



Субтитри:
мова: українська
тип: програмні (м'які)
формат: *.srt

Субтитри:
мова: англійська
тип: програмні (м'які)
формат: *.srt

Трейлер


Скріншоти


































































































MediaInfo

General
Unique ID : 226679993647922059738095854172450064747 (0xAA88FA8FC0E4977B948A306BFA48096B)
Complete name : J:\!!!!!Dvd\!2060\Red.Tails.2012..HD.720pUKR.[UAVocie].mkv
Format : Matroska
Format version : Version 4 / Version 2
File size : 4.63 GiB
Duration : 2h 5mn
Overall bit rate : 5 298 Kbps
Encoded date : UTC 2014-04-13 09:13:34
Writing application : mkvmerge v6.8.0 ('Theme for Great Cities') 32bit built on Mar 2 2014 21:27:07
Writing library : libebml v1.3.0 + libmatroska v1.4.1

Video
ID : 2
Format : AVC
Format/Info : Advanced Video Codec
Format profile : [email protected]
Format settings, CABAC : Yes
Format settings, ReFrames : 12 frames
Codec ID : V_MPEG4/ISO/AVC
Duration : 2h 5mn
Bit rate : 4 361 Kbps
Width : 1 280 pixels
Height : 534 pixels
Display aspect ratio : 2.40:1
Frame rate mode : Constant
Frame rate : 23.976 fps
Color space : YUV
Chroma subsampling : 4:2:0
Bit depth : 8 bits
Scan type : Progressive
Bits/(Pixel*Frame) : 0.266
Stream size : 3.81 GiB (82%)
Title : Red Tails (2012)
Writing library : core 122 r2184 5c85e0a
Encoding settings : cabac=1 / ref=12 / deblock=1:-3:-3 / analyse=0x3:0x113 / me=tesa / subme=11 / psy=1 / psy_rd=1.15:0.00 / mixed_ref=1 / me_range=16 / chroma_me=1 / trellis=2 / 8x8dct=1 / cqm=0 / deadzone=21,11 / fast_pskip=0 / chroma_qp_offset=-2 / threads=12 / sliced_threads=0 / nr=0 / decimate=0 / interlaced=0 / bluray_compat=0 / constrained_intra=0 / bframes=9 / b_pyramid=2 / b_adapt=2 / b_bias=0 / direct=3 / weightb=1 / open_gop=0 / weightp=2 / keyint=250 / keyint_min=23 / scenecut=40 / intra_refresh=0 / rc=crf / mbtree=0 / crf=14.8 / qcomp=0.60 / qpmin=0 / qpmax=69 / qpstep=4 / ip_ratio=1.40 / pb_ratio=1.30 / aq=1:0.70
Language : English
Default : Yes
Forced : No
Matrix coefficients : BT.709

Audio #1
ID : 1
Format : AC-3
Format/Info : Audio Coding 3
Mode extension : CM (complete main)
Format settings, Endianness : Big
Codec ID : A_AC3
Duration : 2h 5mn
Bit rate mode : Constant
Bit rate : 640 Kbps
Channel count : 6 channels
Channel positions : Front: L C R, Side: L R, LFE
Sampling rate : 48.0 KHz
Bit depth : 16 bits
Compression mode : Lossy
Stream size : 572 MiB (12%)
Language : English
Default : No
Forced : No

Audio #2
ID : 3
Format : AC-3
Format/Info : Audio Coding 3
Mode extension : CM (complete main)
Format settings, Endianness : Big
Codec ID : A_AC3
Duration : 2h 5mn
Bit rate mode : Constant
Bit rate : 192 Kbps
Channel count : 2 channels
Channel positions : Front: L R
Sampling rate : 48.0 KHz
Bit depth : 16 bits
Compression mode : Lossy
Stream size : 172 MiB (4%)
Title : UKR[DVO][UAVoice]
Language : Ukrainian
Default : Yes
Forced : No

Text #1
ID : 4
Format : UTF-8
Codec ID : S_TEXT/UTF8
Codec ID/Info : UTF-8 Plain Text
Language : English
Default : Yes
Forced : No

Text #2
ID : 5
Format : UTF-8
Codec ID : S_TEXT/UTF8
Codec ID/Info : UTF-8 Plain Text
Title : SDH
Language : English
Default : No
Forced : No

Text #3
ID : 6
Format : UTF-8
Codec ID : S_TEXT/UTF8
Codec ID/Info : UTF-8 Plain Text
Language : English
Default : No
Forced : No
Семпл онлайн

[rutube]http://rutube.ru/video/89aae67f457a9d1a708781dc09c4bb39/[/rutube]




Джерело: &
Особиста оцінка: 10 - без зайвих вагань рекомендую всім!


Авторський реліз (завантажувати можна без реєстрації)
 Трекер:    Зареєстрований   

Завантажити / скачати фільм українською



відео для новачків



 Зареєстрований:   2014-04-13 13:09
 Розмір:   4.63 GB 
 Оцінка фільму:   8.9/10 (Голосів: 20)
   
Інші релізи
   Червоні Хвости / Red Tails (2012) Ukr/Eng Arsenfpu  1 / 0   2.3 GB   2015-05-11 15:51 
BOOGud 
VIP


З нами з: 06.03.12
Востаннє: 11.11.16
Повідомлень: 907

2014-04-13 13:51  
озвучка стара!!! тож перед завантаженням дивіться семпл
Ваш часовий пояс: GMT + 2 Години

Нова тема   Відповісти