Завантажити та скачати торренти українською


NCIS: полювання на вбивцю (Сезон 10) / NCIS: Naval Criminal Investigative Service (Season 10) (2012) Ukr/Eng

Нові коментарі

Нова тема   Відповісти
Автор Повідомлення
Anonymous 







2014-03-31 11:23  
NCIS: полювання на вбивцю (Сезон 10) / NCIS: Naval Criminal Investigative Service (Season 10) (2012) Ukr/Eng

NCIS: полювання на вбивцю (Сезон 10) / NCIS: Naval Criminal Investigative Service (Season 10) (2012) Ukr/Eng


Жанр: детектив, кримінальний, пригодницький, комедія
Країна: США


Кінокомпанія / телеканал: Belisarius Productions, Paramount Network Television, CBS Paramount Network Television
Режисер: Дональд П. Беллісаріо, Дон МакДжилл
Актори: Марк Хармон, Коте Де Пабло, Майкл Уезерлі, Полі Перретт, Шон Мюррей, Девід МакКаллум
Ролі озвучують: Георгій Гавриленко, Катерина Брайковська

Сюжет:
Головні герої серіалу - група детективів, які знаходяться під юрисдикцією служби кримінальних розслідувань ВМС США. Кожна справа тим або іншим чином пов'язана зі службовцями морської піхоти.
Очолює відділ агент Лерой Джетро Гіббс. Його команда - детектив Ентоні Дінозо, колишня агентеса секретної служби Зіва, судмедексперт Еббі Скьюто, паталогоанатом "Дакі" Маллард і комп'ютерний геній Тімоті МакГі.
Щодня, ризикуючи власними життями, вони віртуозно розкривають найзагадковіші та найскладніші справи.Серіал NCIS - це незвичайні злочину, непередбачувані розв'язки і динамічний сюжет, неабияк приправлений чорним гумором.


Тривалість: 1 серія: 44 хвилини (цілком серій: 24)
Перелік серій
NCIS: Naval Criminal Investigative Service. Season 10, Episode 1. Extreme Prejudice
NCIS: Naval Criminal Investigative Service. Season 10, Episode 2. Recovery
NCIS: Naval Criminal Investigative Service. Season 10, Episode 3. Phoenix
NCIS: Naval Criminal Investigative Service. Season 10, Episode 4. Lost at Sea
NCIS: Naval Criminal Investigative Service. Season 10, Episode 5. The Namesake
NCIS: Naval Criminal Investigative Service. Season 10, Episode 6. Shell Shock: Part I
NCIS: Naval Criminal Investigative Service. Season 10, Episode 7. Shell Shock: Part II
NCIS: Naval Criminal Investigative Service. Season 10, Episode 8. Gone
NCIS: Naval Criminal Investigative Service. Season 10, Episode 9. Devil's Trifecta
NCIS: Naval Criminal Investigative Service. Season 10, Episode 10. You Better Watch Out
NCIS: Naval Criminal Investigative Service. Season 10, Episode 11. Shabbat Shalom
NCIS: Naval Criminal Investigative Service. Season 10, Episode 12. Shiva
NCIS: Naval Criminal Investigative Service. Season 10, Episode 13. Hit and Run
NCIS: Naval Criminal Investigative Service. Season 10, Episode 14. Canary
NCIS: Naval Criminal Investigative Service. Season 10, Episode 15. Hereafter
NCIS: Naval Criminal Investigative Service. Season 10, Episode 16. Detour
NCIS: Naval Criminal Investigative Service. Season 10, Episode 17. Prime Suspect
NCIS: Naval Criminal Investigative Service. Season 10, Episode 18. Seek
NCIS: Naval Criminal Investigative Service. Season 10, Episode 19. Squall
NCIS: Naval Criminal Investigative Service. Season 10, Episode 20. Chasing Ghosts
NCIS: Naval Criminal Investigative Service. Season 10, Episode 21. Berlin
NCIS: Naval Criminal Investigative Service. Season 10, Episode 22. Revenge
NCIS: Naval Criminal Investigative Service. Season 10, Episode 23. Double Blind
NCIS: Naval Criminal Investigative Service. Season 10, Episode 24. Damned If You Do
Якість: (reward)
Відео:
кодек:
розмір кадру: 720 х 406
бітрейт: ~660 кб/с

Аудіо # 1:
мова: українська
переклад: двоголосий закадровий | Георгій Гавриленко і Катерина Брайковська
кодек: 2.0
бітрейт: 192 кб/с

Аудіо # 2:
мова: англійська
переклад: оригінал
кодек: 2.0
бітрейт: 192 кб/с

Джерело озвучення:



Інші роздачі: season 1 | season 2 | season 3 | season 4 | season 5 | season 6 | season 7 | season 8 | season 9

Скріншоти



MediaInfo
General
Unique ID : 233128297105146258840801123490708432316 (0xAF62E077CABF1C5F8055904ED445A5BC)
Complete name : ***\NCIS.s10..Ukr.Eng\NCIS.s10e01..Ukr.Eng.mkv
Format : Matroska
Format version : Version 2
File size : 332 MiB
Duration : 43mn 55s
Overall bit rate : 1 057 Kbps
Movie name : NCIS: Naval Criminal Investigative Service. Season 10, Episode 1. Extreme Prejudice
Encoded date : UTC 2014-03-30 23:33:04
Writing application : mkvmerge v5.8.0 ('No Sleep / Pillow') built on Sep 2 2012 15:37:04
Writing library : libebml v1.2.3 + libmatroska v1.3.0

Video
ID : 1
Format : AVC
Format/Info : Advanced Video Codec
Format profile : [email protected]
Format settings, CABAC : Yes
Format settings, ReFrames : 5 frames
Codec ID : V_MPEG4/ISO/AVC
Duration : 43mn 55s
Bit rate : 652 Kbps
Width : 720 pixels
Height : 406 pixels
Display aspect ratio : 16:9
Frame rate mode : Constant
Frame rate : 23.976 fps
Color space : YUV
Chroma subsampling : 4:2:0
Bit depth : 8 bits
Scan type : Progressive
Bits/(Pixel*Frame) : 0.093
Stream size : 205 MiB (62%)
Writing library : core 135 r2345 f0c1c53
Encoding settings : cabac=1 / ref=5 / deblock=1:0:0 / analyse=0x3:0x113 / me=umh / subme=8 / psy=1 / psy_rd=1.00:0.00 / mixed_ref=1 / me_range=16 / chroma_me=1 / trellis=1 / 8x8dct=1 / cqm=0 / deadzone=21,11 / fast_pskip=1 / chroma_qp_offset=-2 / threads=12 / lookahead_threads=2 / sliced_threads=0 / nr=0 / decimate=1 / interlaced=0 / bluray_compat=0 / constrained_intra=0 / bframes=3 / b_pyramid=2 / b_adapt=2 / b_bias=0 / direct=3 / weightb=1 / open_gop=0 / weightp=2 / keyint=240 / keyint_min=24 / scenecut=40 / intra_refresh=0 / rc_lookahead=50 / rc=crf / mbtree=1 / crf=19.0 / qcomp=0.60 / qpmin=0 / qpmax=69 / qpstep=4 / ip_ratio=1.40 / aq=1:1.00
Language : English
Default : Yes
Forced : No

Audio #1
ID : 2
Format : AC-3
Format/Info : Audio Coding 3
Mode extension : CM (complete main)
Format settings, Endianness : Big
Codec ID : A_AC3
Duration : 43mn 55s
Bit rate mode : Constant
Bit rate : 192 Kbps
Channel(s) : 2 channels
Channel positions : Front: L R
Sampling rate : 48.0 KHz
Bit depth : 16 bits
Compression mode : Lossy
Stream size : 60.3 MiB (18%)
Language : Ukrainian
Default : Yes
Forced : No

Audio #2
ID : 3
Format : AC-3
Format/Info : Audio Coding 3
Mode extension : CM (complete main)
Format settings, Endianness : Big
Codec ID : A_AC3
Duration : 43mn 55s
Bit rate mode : Constant
Bit rate : 192 Kbps
Channel(s) : 2 channels
Channel positions : Front: L R
Sampling rate : 48.0 KHz
Bit depth : 16 bits
Compression mode : Lossy
Stream size : 60.3 MiB (18%)
Language : English
Default : No
Forced : No
Джерело:
Особиста оцінка: 8 - мені сподобалося


Бронзовий реліз (на рейтинг впливає 75% завантаженого)
 Трекер:    Зареєстрований   

Завантажити / скачати серіал українською



відео для новачків



 Зареєстрований:   2014-06-15 13:48
 Розмір:   8.06 GB 
 Оцінка серіалу:   9.9/10 (Голосів: 48)
   
grimson32 
Частий відвідувач


З нами з: 03.04.12
Востаннє: 01.12.16
Повідомлень: 48

2014-04-13 15:33  
Чи варто очикувати реліз в AVI ?
fl_fl 
Відео Гуртом - фільмокрай
Відео Гуртом - фільмокрай


З нами з: 26.05.09
Востаннє: 01.12.16
Повідомлень: 3046

2014-05-19 20:09  
slavik_v_z
Ролі озвучують: Георгій Гавриленко, Катерина Брайковська.

grimson32 
Частий відвідувач


З нами з: 03.04.12
Востаннє: 01.12.16
Повідомлень: 48

2014-06-15 16:21  
Дякую за реліз, але чому Н.264, а не як попередні сезони?
Darwin 
Поважний учасник


З нами з: 25.05.09
Востаннє: 02.12.16
Повідомлень: 164

2014-06-15 20:52  
Цікаво чи покажуть 11 сезон?
SilverHead 
Новенький


З нами з: 19.07.13
Востаннє: 22.11.16
Повідомлень: 15

2015-07-09 16:20  
А чи не буде шановне панство так люб'язно, щоб стати на роздачу?
Красно дякую!

fx2002 
Частий відвідувач


З нами з: 03.09.14
Востаннє: 01.12.16
Повідомлень: 27

2015-09-23 23:20  
Darwin написано:
Цікаво чи покажуть 11 сезон?

ICTV почав показ 11 сезону Happy

Darwin 
Поважний учасник


З нами з: 25.05.09
Востаннє: 02.12.16
Повідомлень: 164

2015-09-24 09:53  
Круто Happy
Marina3000 
Свій


З нами з: 12.11.09
Востаннє: 02.12.16
Повідомлень: 90

2015-09-28 19:48  
На ех вже 8 серiй
Anonymous 







2015-09-28 19:58  
11-й роблю, викладу як тільки буде можливість.
Marina3000 
Свій


З нами з: 12.11.09
Востаннє: 02.12.16
Повідомлень: 90

2015-09-29 08:54  
СПАСИБО!!!
grimson32 
Частий відвідувач


З нами з: 03.04.12
Востаннє: 01.12.16
Повідомлень: 48

2015-09-29 09:59  
slavik_v_z
Дякую! Сподіваюсь реліз буде в AVI ?

Ваш часовий пояс: GMT + 2 Години

Нова тема   Відповісти