Завантажити та скачати торренти українською


Таємне життя Волтера Мітті / The Secret Life of Walter Mitty (2013) 720p-mini

Нові коментарі

Нова тема   Відповісти
Автор Повідомлення
Drool 
VIP


З нами з: 17.04.10
Востаннє: 06.12.16
Повідомлень: 1264

2014-03-28 07:58  
Таємне життя Волтера Мітті / The Secret Life of Walter Mitty (2013) 720p-mini

Жанр: пригодницький, комедія, драма
Країна: США



Кінокомпанія: Twentieth Century Fox Film Corporation, TSG Entertainment, Samuel Goldwyn Films
Режисер: Бен Стіллер
Актори: Бен Стіллер, Крістен Віґ, Шон Пенн, Адам Скотт, Кетрін Ган, Шірлі Маклейн, Петтон Освальт, Джої Слотнік, Тосіко Онідзава, Адріан Мартінез

Сюжет:
Хто сказав, що в серці маленької людини не можуть жити великі мрії? Навіть скромному і непомітному службовцю хочеться іноді зробити нехай божевільні, але геройські вчинки, повірити в свою силу і мужність. Чому всіх рятувати повинні виключно супермени?


Тривалість: 01:54:34
Якість: 720p-mini
Відео:
кодек:
розмір кадру: 1280x534
бітрейт: 2603 кб/с

Аудіо:
мова: українська
переклад: професійний дубльований
кодек: 5.1
бітрейт: 448 кб/с
Джерело озвучення:
MediaInfo
General
Unique ID : 212950300134535709344246316588602164436 (0xA034BC687FDC56F90E6EA168446B04D4)
Complete name : /mnt/disk_d/Video/The.Secret.Life.of.Walter.Mitty.2013.Ukr.Dub..720p-mini.UAGet.mkv
Format : Matroska
Format version : Version 4 / Version 2
File size : 2.44 GiB
Duration : 1h 54mn
Overall bit rate : 3 052 Kbps
Movie name : Таємне життя Волтера Мітті / The Secret Life of Walter Mitty (2013) 720p-mini -=UAGet=-
Encoded date : UTC 2010-02-22 21:41:31
Writing application : mkvmerge v6.1.0 ('Old Devil') built on Apr 14 2013 12:25:55
Writing library : libebml v1.3.0 + libmatroska v1.4.0
TITLE : Таємне життя Волтера Мітті (2013) 720p-mini -=UAGet=-
ARTIST : Бен Стіллер, Крістен Віґ, Шон Пенн, Адам Скотт, Кетрін Ган, Шірлі Маклейн та ін.
DIRECTOR : Бен Стіллер
DATE_RELEASED : 2013
GENRE : пригодницький, комедія, драма
SYNOPSIS : Хто сказав, що в серці маленької людини не можуть жити великі мрії? Навіть скромному і непомітному службовцю хочеться іноді зробити нехай божевільні, але геройські вчинки, повірити в свою силу і мужність. Чому всіх рятувати повинні виключно супермени?

Video
ID : 1
Format : AVC
Format/Info : Advanced Video Codec
Format profile : [email protected]
Format settings, CABAC : Yes
Format settings, ReFrames : 10 frames
Codec ID : V_MPEG4/ISO/AVC
Duration : 1h 54mn
Bit rate : 2 603 Kbps
Width : 1 280 pixels
Height : 534 pixels
Display aspect ratio : 2.40:1
Frame rate : 23.976 fps
Color space : YUV
Chroma subsampling : 4:2:0
Bit depth : 8 bits
Scan type : Progressive
Bits/(Pixel*Frame) : 0.159
Stream size : 2.04 GiB (83%)
Title : Таємне життя Волтера Мітті / The Secret Life of Walter Mitty (2013) 720p-mini -=UAGet=-
Writing library : core 142 r2389 956c8d8
Encoding settings : cabac=1 / ref=11 / deblock=1:-3:-3 / analyse=0x3:0x133 / me=umh / subme=11 / psy=1 / psy_rd=1,10:0,20 / mixed_ref=1 / me_range=32 / chroma_me=1 / trellis=2 / 8x8dct=1 / cqm=0 / deadzone=21,11 / fast_pskip=0 / chroma_qp_offset=-3 / threads=6 / lookahead_threads=1 / sliced_threads=0 / nr=0 / decimate=1 / interlaced=0 / bluray_compat=0 / constrained_intra=0 / bframes=11 / b_pyramid=1 / b_adapt=2 / b_bias=0 / direct=3 / weightb=1 / open_gop=0 / weightp=2 / keyint=240 / keyint_min=24 / scenecut=40 / intra_refresh=0 / rc=2pass / mbtree=0 / bitrate=2603 / ratetol=1,0 / qcomp=1,00 / qpmin=0 / qpmax=69 / qpstep=4 / cplxblur=20,0 / qblur=0,5 / ip_ratio=1,40 / pb_ratio=1,30 / aq=2:0,60
Default : Yes
Forced : No
Color primaries : BT.709-5, BT.1361, IEC 61966-2-4, SMPTE RP177
Transfer characteristics : BT.709-5, BT.1361
Matrix coefficients : BT.709-5, BT.1361, IEC 61966-2-4 709, SMPTE RP177

Audio
ID : 2
Format : AC-3
Format/Info : Audio Coding 3
Mode extension : CM (complete main)
Codec ID : A_AC3
Duration : 1h 54mn
Bit rate mode : Constant
Bit rate : 448 Kbps
Channel(s) : 6 channels
Channel positions : Front: L C R, Side: L R, LFE
Sampling rate : 48.0 KHz
Bit depth : 16 bits
Compression mode : Lossy
Stream size : 367 MiB (15%)
Title : Рідна мова (дубляж Blu-Ray) 5.1 448 kbps
Language : Ukrainian
Default : Yes
Forced : No
Скріншоти




Реліз від:
Особиста оцінка: 10 - без зайвих вагань рекомендую всім!


 Трекер:    Зареєстрований   

Завантажити / скачати фільм українською



відео для новачків



 Зареєстрований:   2014-03-31 07:11
 Розмір:   2.44 GB 
 Оцінка фільму:   9.5/10 (Голосів: 31)
   
bot 
робот


З нами з: 30.09.07
Востаннє: 26.05.05
Повідомлень: 16002

2014-03-28 07:58  
Тему перенесено з Фільми в HD до форуму Анонси релізів


Drool

oleh1095 
Новенький


З нами з: 22.09.12
Востаннє: 01.12.16
Повідомлень: 5

2014-03-28 22:00  
коли реліз?
Drool 
VIP


З нами з: 17.04.10
Востаннє: 06.12.16
Повідомлень: 1264

2014-03-29 15:01  
oleh1095 написано:
коли реліз?

У понеділок. У п'ятницю до кінця робочого дня докачався блюр, йдучи додому поставив кодуватися. Орієнтовний розмір буде 2.4-2.5 гектари.

bot 
робот


З нами з: 30.09.07
Востаннє: 26.05.05
Повідомлень: 16002

2014-03-31 07:10  
Тему перенесено з Анонси релізів до форуму Фільми в HD


Drool

typ01 
Новенький


З нами з: 31.10.13
Востаннє: 24.07.15
Повідомлень: 5

2014-07-05 18:07  
На роздачу, будь-ласка)
kino. 
Модератор відео


З нами з: 27.06.10
Востаннє: 06.12.16
Повідомлень: 2900

2014-07-05 18:24  
typ01 написано:
На роздачу, будь-ласка)

Ваш рейтинг опустився нижче 0,15. Коли він підніметься до цього рівня, ви знову зможете завантажувати торрент-файли. Почитайте ЦЕ

Kataiss 
Новенький


З нами з: 18.02.12
Востаннє: 28.11.16
Повідомлень: 1

2014-09-15 18:17  
чудовий життєствердний епічний фільм про маленьку людину,яка виросла у своїх очах і розширила свій кругозір!!))
дякую за реліз)

Ваш часовий пояс: GMT + 2 Години

Нова тема   Відповісти