Завантажити та скачати торренти українською


Хоббіт: Пустка Смоґа / The Hobbit: The Desolation of Smaug (2013) 720p-mini

Нові коментарі

Нова тема   Відповісти
Автор Повідомлення
Drool 
VIP


З нами з: 17.04.10
Востаннє: 03.12.16
Повідомлень: 1262

2014-03-24 13:27  
Хоббіт: Пустка Смоґа / The Hobbit: The Desolation of Smaug (2013) 720p-mini

Жанр: пригоди, фентезі
Країна: США, Новая Зеландія



Кінокомпанія: Metro-Goldwyn-Mayer (MGM), New Line Cinemam, WingNut Films
Режисер: Пітер Джексон
Актори: Мартін Фріман, Річард Армітедж, Ієн МакКеллен, Еванджелін Ліллі, Орландо Блум, Люк Эванс, Бенедикт Камбербетч, Лі Пейс, Кен Стотт, Ейдан Тернер

Сюжет:
Торін та компанія дістаються до Лейк-таун, і для хоббіта Більбо Беггінса настає час виконати свої зобов'язання перед гномами. Група повинна пробратися до Самотньої Гори, де Беггінс повинен відшукати Потайні Двері, які ведуть до скарбів, захоплених драконом Смогом. Якщо Більбо і гноми зможуть заволодіти скарбами, чи зможуть вони їх зберегти? І чи дізнаються вони, що ж сталося з чарівником Гендальфом?


Тривалість: 02:41:17
Якість: 720p-mini
Відео:
кодек:
розмір кадру: 1 280 x 544
бітрейт: 2651 кб/с

Аудіо:
мова: українська
переклад: професійний дубльований
кодек: 5.1
бітрейт: 448 кб/с

Субтитри:
мова: українська
тип: програмні (м'які, форсовані)
формат: *.srt
MediaInfo
General
Unique ID : 64224253258889881578809912384258525483 (0x3051242901D950EE3A965A6FF853492B)
Complete name : /mnt/disk_d/Video/The.Hobbit.The.Desolation.Of.Smaug.2013.Ukr..720p-mini.UAGet.mkv
Format : Matroska
Format version : Version 4 / Version 2
File size : 3.49 GiB
Duration : 2h 41mn
Overall bit rate : 3 100 Kbps
Movie name : Хоббіт: Пустка Смоґа / The Hobbit: The Desolation of Smaug (2013) 720p-mini -=UAGet=-
Encoded date : UTC 2010-02-22 21:41:31
Writing application : mkvmerge v6.1.0 ('Old Devil') built on Apr 14 2013 12:25:55
Writing library : libebml v1.3.0 + libmatroska v1.4.0
TITLE : Хоббіт: Пустка Смоґа (2013) 720p-mini -=UAGet=-
ARTIST : Мартін Фріман, Річард Армітедж, Ієн МакКеллен, Еванджелін Ліллі, Орландо Блум
DIRECTOR : Пітер Джексон
DATE_RELEASED : 2013
GENRE : пригоди, фентезі
SYNOPSIS : Торін та компанія дістаються до Лейк-таун, і для хоббіта Більбо Беггінса настає час виконати свої зобов'язання перед гномами. Група повинна пробратися до Самотньої Гори, де Беггінс повинен відшукати Потайні Двері, які ведуть до скарбів, захоплених драконом Смогом. Якщо Більбо і гноми зможуть заволодіти скарбами, чи зможуть вони їх зберегти? І чи дізнаються вони, що ж сталося з чарівником Гендальфом?

Video
ID : 1
Format : AVC
Format/Info : Advanced Video Codec
Format profile : [email protected]
Format settings, CABAC : Yes
Format settings, ReFrames : 7 frames
Codec ID : V_MPEG4/ISO/AVC
Duration : 2h 41mn
Bit rate : 2 651 Kbps
Width : 1 280 pixels
Height : 544 pixels
Display aspect ratio : 2.35:1
Frame rate : 23.976 fps
Color space : YUV
Chroma subsampling : 4:2:0
Bit depth : 8 bits
Scan type : Progressive
Bits/(Pixel*Frame) : 0.159
Stream size : 2.92 GiB (84%)
Title : Хоббіт: Пустка Смоґа / The Hobbit: The Desolation of Smaug (2013) 720p-mini -=UAGet=-
Writing library : core 142 r2389 956c8d8
Encoding settings : cabac=1 / ref=8 / deblock=1:-3:-3 / analyse=0x3:0x133 / me=umh / subme=11 / psy=1 / psy_rd=1,10:0,20 / mixed_ref=1 / me_range=32 / chroma_me=1 / trellis=2 / 8x8dct=1 / cqm=0 / deadzone=21,11 / fast_pskip=0 / chroma_qp_offset=-3 / threads=6 / lookahead_threads=1 / sliced_threads=0 / nr=0 / decimate=1 / interlaced=0 / bluray_compat=0 / constrained_intra=0 / bframes=8 / b_pyramid=1 / b_adapt=2 / b_bias=0 / direct=3 / weightb=1 / open_gop=0 / weightp=2 / keyint=240 / keyint_min=24 / scenecut=40 / intra_refresh=0 / rc=2pass / mbtree=0 / bitrate=2651 / ratetol=1,0 / qcomp=1,00 / qpmin=0 / qpmax=69 / qpstep=4 / cplxblur=20,0 / qblur=0,5 / ip_ratio=1,40 / pb_ratio=1,30 / aq=2:0,60
Default : Yes
Forced : No
Color primaries : BT.709-5, BT.1361, IEC 61966-2-4, SMPTE RP177
Transfer characteristics : BT.709-5, BT.1361
Matrix coefficients : BT.709-5, BT.1361, IEC 61966-2-4 709, SMPTE RP177

Audio
ID : 2
Format : AC-3
Format/Info : Audio Coding 3
Mode extension : CM (complete main)
Codec ID : A_AC3
Duration : 2h 41mn
Bit rate mode : Constant
Bit rate : 448 Kbps
Channel(s) : 6 channels
Channel positions : Front: L C R, Side: L R, LFE
Sampling rate : 48.0 KHz
Bit depth : 16 bits
Compression mode : Lossy
Stream size : 517 MiB (14%)
Title : Рідна мова (дубляж Blu-Ray) 5.1 448 kbps
Language : Ukrainian
Default : Yes
Forced : No

Text
ID : 3
Format : UTF-8
Codec ID : S_TEXT/UTF8
Codec ID/Info : UTF-8 Plain Text
Title : Українські (форсовані)
Language : Ukrainian
Default : Yes
Forced : Yes
Скріншоти




Реліз від:
Особиста оцінка: 9 - давно не бачив настільки якісне кіно
Велика подяка пану 11FrYkT за ліцензійну звукову доріжку


 Трекер:    Зареєстрований   

Завантажити / скачати фільм українською



відео для новачків



 Зареєстрований:   2014-03-26 11:04
 Розмір:   3.49 GB 
 Оцінка фільму:   9.6/10 (Голосів: 67)
   
Інші релізи
   Хоббіт: Пустка Смоґа [Розширена версія] / The Hobbit: The Desolation of Smaug [Extended Edition] (2013) 1080p 3D [Half OverUnder] Ukr/Eng | Sub Ukr/Eng GEORGKys  2 / 0   16.03 GB   2016-02-11 22:18 
   Хоббіт: Пустка Смоґа [Розширена версія] / The Hobbit: The Desolation of Smaug [Extended Edition] (2013) AVC Ukr | Sub Ukr/Eng patriot2305  3 / 0   3.53 GB   2015-12-03 08:12 
   Хоббіт: Пустка Смоґа [Розширена версія] / The Hobbit: The Desolation of Smaug [Extended Cut] (2013) 720p Eng | Sub Ukr FBRUA  0 / 0   5.56 GB   2014-12-18 14:31 
   Хоббіт: Пустка Смоґа [Розширена версія] / The Hobbit: The Desolation of Smaug [Extended Cut] (2013) 1080p Eng | Sub Ukr/Eng FBRUA  1 / 0   15 GB   2014-12-16 22:04 
   Хоббіт: Пустка Смоґа / The Hobbit: The Desolation of Smaug (2013) 720p [60fps] Ukr/Eng | Sub Ukr/Eng VolSHeBniK17  0 / 0   8.4 GB   2014-08-17 15:01 
   Хоббіт: Пустка Смоґа / The Hobbit: The Desolation of Smaug (2013) DVD5 Quasar  0 / 0   4.36 GB   2014-07-05 16:14 
   Хоббіт: Пустка Смоґа / The Hobbit: The Desolation of Smaug (2013) Remux 1080p Ukr/Eng | Sub Ukr/Eng 11FrYkT  0 / 0   31.21 GB   2014-03-27 09:29 
   Хоббіт: Пустка Смоґа / The Hobbit: The Desolation of Smaug (2013) 1080p Ukr/Eng | Sub Ukr/Eng 11FrYkT  6 / 0   16.88 GB   2014-03-26 18:47 
   Хоббіт: пустка Смоґа / Гобіт: пустка Смоґа / The Hobbit: The Desolation of Smaug (2013) AVC Ukr/Eng | Sub Ukr/Eng Gelios  4 / 0   2.91 GB   2014-03-26 15:52 
   Хоббіт: Пустка Смоґа / The Hobbit: The Desolation of Smaug (2013) 720p Ukr/Eng | Sub Ukr/Eng 11FrYkT  6 / 0   8.43 GB   2014-03-26 10:20 
bot 
робот


З нами з: 30.09.07
Востаннє: 26.05.05
Повідомлень: 15989

2014-03-24 13:27  
Тему перенесено з Фільми в HD до форуму Анонси релізів


Drool

shalaiko 
Новенький


З нами з: 20.01.11
Востаннє: 04.12.16
Повідомлень: 1

2014-03-24 18:30  
коли буде роздача?
Seriy100293 
VIP


З нами з: 17.08.11
Востаннє: 04.09.16
Повідомлень: 307

2014-03-24 18:36  
shalaiko
Не хвилюйтесь - доживете Wink (1)

Seriy100293 
VIP


З нами з: 17.08.11
Востаннє: 04.09.16
Повідомлень: 307

2014-03-24 22:13  
Drool
Було б добре, якби Ви і англійську доріжку додали

Drool 
VIP


З нами з: 17.04.10
Востаннє: 03.12.16
Повідомлень: 1262

2014-03-25 07:52  
Seriy100293 написано:
Було б добре, якби Ви і англійську доріжку додали

Ні, для цього будуть інші релізи, не -mini.

Додано через 1 хвилину 6 секунд:

shalaiko написано:
коли буде роздача?

Завтра. Сьогодні на протязі дня сервер, який кодує відео, буде потрібен для службових задач. Хоча, якщо вірні чутки, що сьогодні-завтра має бути ліцензія - можу затримати роздачу, щоб нормальну доріжку додати.

GDB 
Новенький


З нами з: 03.11.12
Востаннє: 24.07.16
Повідомлень: 1

2014-03-25 12:20  
Якщо можливо, додайте на портал українську доріжку окремим файлом.
omm 
Відео Гуртом - фільмокрай
Відео Гуртом - фільмокрай


З нами з: 12.06.12
Востаннє: 04.12.16
Повідомлень: 2066

2014-03-25 13:04  
Блюр вийшов з укр 448, оновлюватимете?
11FrYkT 
Модератор відео


З нами з: 20.02.11
Востаннє: 04.12.16
Повідомлень: 3079

2014-03-25 13:11  
omm, та ще і оновлювати нема що бо поки це анонс
Drool написано:
Завтра. Сьогодні на протязі дня сервер, який кодує відео, буде потрібен для службових задач. Хоча, якщо вірні чутки, що сьогодні-завтра має бути ліцензія - можу затримати роздачу, щоб нормальну доріжку додати

bot 
робот


З нами з: 30.09.07
Востаннє: 26.05.05
Повідомлень: 15989

2014-03-26 11:04  
Тему перенесено з Анонси релізів до форуму Фільми в HD


Drool

kvazar723 
Новенький


З нами з: 26.12.12
Востаннє: 08.04.15
Повідомлень: 21

2014-03-26 19:55  
безмежно вдячний
Alexandr Bull 
Новенький


З нами з: 23.10.13
Востаннє: 23.10.16
Повідомлень: 14

2014-03-29 19:12  
Клас, дочекався!!! ДЯКУЮ!!!
trelxtrel 
VIP


З нами з: 15.12.10
Востаннє: 03.12.16
Повідомлень: 327

2014-04-20 16:42  
Друга частина сподобалась більше за першу. Вона динамічніша, яскравіша і цікавіша. Але основне залишили на заключний фільм, думаю він буде по стилю більш подібним до Володара кілець, тобто з більшою кількістю екшену, бо усе таки перші дві частини Хоббіта вийшли своєрідним прологом до основних подій.

Але тим не менш фільм вийшов якісним

8,5/10

Seriy100293 
VIP


З нами з: 17.08.11
Востаннє: 04.09.16
Повідомлень: 307

2014-07-01 20:18  
Хто робив субтитри? Вони неповні! Постійно остання фраза героїв не перекладена!
Dellariver 
Свій


З нами з: 14.01.12
Востаннє: 04.12.16
Повідомлень: 127

2015-04-10 14:28  
Дякую 10
Ваш часовий пояс: GMT + 2 Години

Нова тема   Відповісти