Завантажити та скачати торренти українською


Майстер / The Master (2012) 720p Ukr/Eng | Sub Eng

Нові коментарі

Нова тема   Відповісти
Автор Повідомлення
NeetScrool 
Відео Гуртом - фільмокрай
Відео Гуртом - фільмокрай


З нами з: 10.01.13
Востаннє: 05.12.16
Повідомлень: 2214

2014-03-19 23:07  
Майстер / The Master (2012) 720p Ukr/Eng | Sub Eng

Майстер / The Master (2012) 720p Ukr/Eng | Sub Eng


Жанр: драма
Країна: США



Кінокомпанія: Weinstein Company, The, Ghoulardi Film Company, Annapurna Pictures
Режисер: Пол Томас Андерсон / Paul Thomas Anderson
Актори: Джоакін Фенікс / Joaquin Phoenix, Філіп Сеймур Гофмен / Philip Seymour Hoffman, Емі Адамс / Amy Adams, Лора Дерн / Laura Dern, Джессі Племонс / Jesse Plemons, Ембір Чілдерс / Ambyr Childers, Рамі Малек / Rami Malek, Мартін Д. Дю / Martin D. Dew, Кевін Дж. О'Коннор / Kevin J. O'Connor, Патріція МакКормак / Patty McCormack

Сюжет:
Після повернення з служби на флоті під час другої світової війни Фредді Квіл не може знайти собі місця в мирному житті. Травми, нанесені війною, залишились не тільки на тілі, а й в душі, і це полум'я Квіл намагається залити алкоголем. На жодній роботі його довго не витримують: з фотосалону звільнили через побиття клієнта, з капустяної ферми - через проблеми із саморобною випивкою. І ось цей неприкаяний, голодний і злий уламок людини прибиває до яхти Ланкастера Додда, харизматичного лідера псевдофілософського руху, який багато хто вважає неорелігійним культом. Ланкастер підбирає Фредді, приймає в свою "родину" і навіть робить найближчим помічником. Та подібні "течії" рідко кого лікують. куди частіше вони наносять ще більше духовних травм.


Тривалість: 02:17:30
Якість:
Відео:
кодек:
розмір кадру: 1280 х 692
бітрейт: 5413 кб/с

Аудіо # 1:
мова: українська
переклад: багатоголосий закадровий
кодек: 5.1
бітрейт: 1509 кб/с

Аудіо # 2:
мова: англійська
переклад: оригінал
кодек: 5.1
бітрейт: 640 кб/с

Субтитри:
мова: англійська
тип: програмні (м'які)
формат: *.srt
MediaInfo
General
Unique ID : 172207586004665479527360036393116800709 (0x818DF982E7B163189937C889A32C96C5)
Complete name : E:\RIP\The Master (2012) [Ukr, Eng] 720p [Hurtom].mkv
Format : Matroska
Format version : Version 4 / Version 2
File size : 7.41 GiB
Duration : 2h 17mn
Overall bit rate : 7 716 Kbps
Movie name : Майстер / The Master (2012) 720p Ukr/Eng | Sub Eng
Encoded date : UTC 2014-03-19 20:12:54
Writing application : mkvmerge v6.8.0 ('Theme for Great Cities') 64bit built on Mar 2 2014 21:34:26
Writing library : libebml v1.3.0 + libmatroska v1.4.1
Attachment : Yes

Video
ID : 1
Format : AVC
Format/Info : Advanced Video Codec
Format profile : [email protected]
Format settings, CABAC : Yes
Format settings, ReFrames : 9 frames
Codec ID : V_MPEG4/ISO/AVC
Duration : 2h 17mn
Bit rate : 5 413 Kbps
Width : 1 280 pixels
Height : 692 pixels
Display aspect ratio : 1.85:1
Frame rate mode : Constant
Frame rate : 23.976 fps
Color space : YUV
Chroma subsampling : 4:2:0
Bit depth : 8 bits
Scan type : Progressive
Bits/(Pixel*Frame) : 0.255
Stream size : 5.20 GiB (70%)
Title : The Master 2012 720p BluRay DD 5.1 -tranc
Writing library : core 129 r2230 1cffe9f
Encoding settings : cabac=1 / ref=9 / deblock=1:-3:-3 / analyse=0x3:0x133 / me=umh / subme=11 / psy=1 / psy_rd=1.00:0.00 / mixed_ref=1 / me_range=24 / chroma_me=1 / trellis=2 / 8x8dct=1 / cqm=0 / deadzone=21,11 / fast_pskip=0 / chroma_qp_offset=-2 / threads=6 / lookahead_threads=1 / sliced_threads=0 / nr=0 / decimate=0 / interlaced=0 / bluray_compat=0 / constrained_intra=0 / bframes=9 / b_pyramid=2 / b_adapt=2 / b_bias=0 / direct=3 / weightb=1 / open_gop=0 / weightp=2 / keyint=250 / keyint_min=23 / scenecut=40 / intra_refresh=0 / rc=crf / mbtree=0 / crf=16.1 / qcomp=0.60 / qpmin=0 / qpmax=69 / qpstep=4 / ip_ratio=1.40 / pb_ratio=1.30 / aq=1:0.90
Language : English
Default : Yes
Forced : Yes

Audio #1
ID : 2
Format :
Format/Info : Digital Theater Systems
Mode : 16
Format settings, Endianness : Big
Codec ID : A_DTS
Duration : 2h 17mn
Bit rate mode : Constant
Bit rate : 1 509 Kbps
Channel count : 6 channels
Channel positions : Front: L C R, Side: L R, LFE
Sampling rate : 48.0 KHz
Bit depth : 24 bits
Compression mode : Lossy
Stream size : 1.45 GiB (20%)
Title : Багатоголосий закадровий
Language : Ukrainian
Default : Yes
Forced : No

Audio #2
ID : 3
Format : AC-3
Format/Info : Audio Coding 3
Mode extension : CM (complete main)
Format settings, Endianness : Big
Codec ID : A_AC3
Duration : 2h 17mn
Bit rate mode : Constant
Bit rate : 640 Kbps
Channel count : 6 channels
Channel positions : Front: L C R, Side: L R, LFE
Sampling rate : 48.0 KHz
Bit depth : 16 bits
Compression mode : Lossy
Stream size : 629 MiB (8%)
Title : Оригінал
Language : English
Default : No
Forced : No

Text
ID : 4
Format : UTF-8
Codec ID : S_TEXT/UTF8
Codec ID/Info : UTF-8 Plain Text
Language : English
Default : No
Forced : No

Menu
00:00:00.000 : en:00:00:00.000
00:17:31.217 : en:00:17:31.217
00:36:38.446 : en:00:36:38.446
00:54:55.125 : en:00:54:55.125
01:16:39.220 : en:01:16:39.220
01:34:52.228 : en:01:34:52.228
01:47:17.848 : en:01:47:17.848
01:55:45.522 : en:01:55:45.522
Скріншоти







Джерело: &
Особиста оцінка: 0 - не дивився


 Трекер:    Зареєстрований   

Завантажити / скачати фільм українською



відео для новачків



 Зареєстрований:   2014-03-19 23:07
 Розмір:   7.41 GB 
 Оцінка фільму:   7.1/10 (Голосів: 10)
   
Інші релізи
   Майстер / The Master (2012) 2xUkr/Eng | Sub Eng karvai0  3 / 0   2.9 GB   2014-05-23 00:24 
77nazzzik77 
Свій


З нами з: 28.08.08
Востаннє: 05.11.16
Повідомлень: 88

2014-03-20 07:19  
"харизматичного літера псевдофілософського руху" мабуть "лідера"
waldi-hurtom 
VIP


З нами з: 07.10.12
Востаннє: 03.12.16
Повідомлень: 611

2014-03-22 17:34  
Непоганий фільм, але чекав на краще. Місцями просто чудово, але затягнуто, і чогось не вистачає. 7 з 10. Дякую за реліз!
Ваш часовий пояс: GMT + 2 Години

Нова тема   Відповісти