Завантажити та скачати торренти українською


VA - Український бум 11 (2012) [FLAC] | Pop

Нові коментарі

Нова тема   Відповісти
Автор Повідомлення
inki 
VIP


З нами з: 24.10.09
Востаннє: 13.10.16
Повідомлень: 380

2014-03-18 15:30  
VA - Український бум 11 (2012) [FLAC] | Pop

VA - Український бум 11 (2012) [FLAC] | Pop


Стиль: Pop
Країна, місто: Україна, Київ
Видавець: ArturMusic
Пісні:
    01. Ірина Федишин - Гітара
    02. Марія Собко - Моя любов
    03. Наталія Бучинська - Кохання золото
    04. Іван Ганзера - Не плач , тато
    05. ТІК - Абонент
    06. Лама - Не підведи
    07. Наталія Валевська - відболіло
    08. Вова зі Львова - Кохана
    09. Alyosha & Влад Дарвін - Ти найкраща
    10. Ірина Білик & Тік - Нецілуй
    11. Олег Шак - Троянда вітрів
    12. Михайло Поплавський - Батько
    13. Микола Гнатюк - Небо
    14. Алла Кудлай - Криниця
    15. Олена Яловик - Доля, доленька
    16. Андрій Заліско - Річка життя
    17. Євгеній Дашин - Стежка до батьків
    18. Віктор Павлік - Новоселиця
    19. Олег Винник - Перлина Україна
    20. Ірина Федишин - Лише у нас на Україні
log
Exact Audio Copy V1.0 beta 3 from 29. August 2011

Отчёт EAC об извлечении, выполненном 9. августа 2012, 11:16

Various Artists / Український бум 11

Дисковод: TSSTcorpCDDVDW TS-L633J Adapter: 0 ID: 1

Режим чтения : Достоверность
Использование точного потока : Да
Отключение кэша аудио : Да
Использование указателей C2 : Нет

Коррекция смещения при чтении : 6
Способность читать области Lead-in и Lead-out : Нет
Заполнение пропущенных сэмплов тишиной : Да
Удаление блоков с тишиной в начале и конце : Нет
При вычислениях CRC использовались нулевые сэмплы : Да
Интерфейс : Встроенный Win32-интерфейс для Win NT/2000

Выходной формат : Пользовательский кодировщик
Выбранный битрейт : 1024 kBit/s
Качество : Высокий
Добавление ID3-тега : Нет
Утилита сжатия : C:\Program Files (x86)\Exact Audio Copy\FLAC\FLAC.EXE
Дополнительные параметры : -8 -V -T "ARTIST=%artist%" -T "TITLE=%title%" -T "ALBUM=%albumtitle%" -T "DATE=%year%" -T "TRACKNUMBER=%tracknr%" -T "GENRE=%genre%" -T "COMMENT=%comment%" -T "BAND=%albuminterpret%" -T "ALBUMARTIST=%albuminterpret%" -T "COMPOSER=%composer%" %haslyrics%--tag-from-file=LYRICS="%lyricsfile%"%haslyrics% -T "DISCNUMBER=%cdnumber%" -T "TOTALDISCS=%totalcds%" -T "TOTALTRACKS=%numtracks%" %hascover%--picture="%coverfile%"%hascover% %source% -o %dest%

TOC извлечённого CD

Трек | Старт | Длительность | Начальный сектор | Конечный сектор
---------------------------------------------------------------------
1 | 0:00.00 | 3:51.04 | 0 | 17328
2 | 3:51.04 | 3:21.53 | 17329 | 32456
3 | 7:12.57 | 3:08.30 | 32457 | 46586
4 | 10:21.12 | 4:31.25 | 46587 | 66936
5 | 14:52.37 | 3:24.44 | 66937 | 82280
6 | 18:17.06 | 3:40.13 | 82281 | 98793
7 | 21:57.19 | 3:08.24 | 98794 | 112917
8 | 25:05.43 | 3:26.56 | 112918 | 128423
9 | 28:32.24 | 3:23.54 | 128424 | 143702
10 | 31:56.03 | 3:45.11 | 143703 | 160588
11 | 35:41.14 | 3:54.64 | 160589 | 178202
12 | 39:36.03 | 3:58.24 | 178203 | 196076
13 | 43:34.27 | 2:56.29 | 196077 | 209305
14 | 46:30.56 | 3:00.59 | 209306 | 222864
15 | 49:31.40 | 4:04.57 | 222865 | 241221
16 | 53:36.22 | 5:00.12 | 241222 | 263733
17 | 58:36.34 | 4:38.15 | 263734 | 284598
18 | 63:14.49 | 4:28.46 | 284599 | 304744
19 | 67:43.20 | 2:58.04 | 304745 | 318098
20 | 70:41.24 | 3:51.53 | 318099 | 335476

Характеристики диапазона извлечения и сообщения об ошибках

Выбранный диапазон

Имя файла D:\VA - Український бум 11 .2012(lossless)\Various Artists - Український бум 11.wav

Пиковый уровень 100.0 %
Скорость извлечения 3.4 X
Качество диапазона 99.9 %
CRC теста 30D26F5A
CRC копии 30D26F5A
Копирование... OK

Ошибок не произошло

AccurateRip: сводка

Трек 1 отсутствует в базе данных
Трек 2 отсутствует в базе данных
Трек 3 отсутствует в базе данных
Трек 4 отсутствует в базе данных
Трек 5 отсутствует в базе данных
Трек 6 отсутствует в базе данных
Трек 7 отсутствует в базе данных
Трек 8 отсутствует в базе данных
Трек 9 отсутствует в базе данных
Трек 10 отсутствует в базе данных
Трек 11 отсутствует в базе данных
Трек 12 отсутствует в базе данных
Трек 13 отсутствует в базе данных
Трек 14 отсутствует в базе данных
Трек 15 отсутствует в базе данных
Трек 16 отсутствует в базе данных
Трек 17 отсутствует в базе данных
Трек 18 отсутствует в базе данных
Трек 19 отсутствует в базе данных
Трек 20 отсутствует в базе данных

Ни одного трека нет в базе AccurateRip

Конец отчёта
.Cue
REM GENRE Pop
REM DATE 2012
REM DISCID 2E117914
REM COMMENT "ExactAudioCopy v1.0b3"
PERFORMER "Various Artists"
TITLE "Український бум 11"
FILE "Various Artists - Український бум 11.flac" WAVE
TRACK 01 AUDIO
TITLE "Гітара"
PERFORMER "Ірина Федишин"
INDEX 01 00:00:00
TRACK 02 AUDIO
TITLE "Моя любов"
PERFORMER "Марія Собко"
INDEX 01 03:51:04
TRACK 03 AUDIO
TITLE "Кохання золото"
PERFORMER "Наталія Бучинська"
INDEX 01 07:12:57
TRACK 04 AUDIO
TITLE "Не плач , тато"
PERFORMER "Іван Ганзера"
INDEX 01 10:21:12
TRACK 05 AUDIO
TITLE "Абонент"
PERFORMER "ТІК"
INDEX 01 14:52:37
TRACK 06 AUDIO
TITLE "Не підведи"
PERFORMER "Лама"
INDEX 01 18:17:06
TRACK 07 AUDIO
TITLE "відболіло"
PERFORMER "Наталія Валевська"
INDEX 01 21:57:19
TRACK 08 AUDIO
TITLE "Кохана"
PERFORMER "Вова зі Львова"
INDEX 01 25:05:43
TRACK 09 AUDIO
TITLE "Ти найкраща"
PERFORMER "Alyosha & Влад Дарвин"
INDEX 01 28:32:24
TRACK 10 AUDIO
TITLE "Нецілуй"
PERFORMER "Ірина Білик & Тік"
INDEX 01 31:56:03
TRACK 11 AUDIO
TITLE "Троянда вітрів"
PERFORMER "Олег Шак"
INDEX 01 35:41:14
TRACK 12 AUDIO
TITLE "Батько"
PERFORMER "Михайло поплавський"
INDEX 01 39:36:03
TRACK 13 AUDIO
TITLE "Небо"
PERFORMER "Микола Гнатюк"
INDEX 01 43:34:27
TRACK 14 AUDIO
TITLE "Криниця"
PERFORMER "Алла Кудлай"
INDEX 01 46:30:56
TRACK 15 AUDIO
TITLE "Доля, доленька"
PERFORMER "Олена Яловик"
INDEX 01 49:31:40
TRACK 16 AUDIO
TITLE "Річка життя "
PERFORMER "Андрій Заліско"
INDEX 01 53:36:22
TRACK 17 AUDIO
TITLE "Стежка до батьків"
PERFORMER "Євгеній Дашин"
INDEX 01 58:36:34
TRACK 18 AUDIO
TITLE "Новоселиця"
PERFORMER "Віктор Павлік"
INDEX 01 63:14:49
TRACK 19 AUDIO
TITLE "Перлина Україна"
PERFORMER "Олег Вінник"
INDEX 01 67:43:20
TRACK 20 AUDIO
TITLE "Лише у нас на Україні"
PERFORMER "Ірина Федишин"
INDEX 01 70:41:24
Тривалість: 01:14:33
Мова: українська
Аудіо-кодек: FLAC
Бітрейт: 1024кб/с
Джерело: 40years


Срібний реліз (на рейтинг впливає 50% завантаженого)
 Трекер:    Зареєстрований   

Завантажити / скачати українську музику



відео для новачків



 Зареєстрований:   2014-03-18 15:30
 Розмір:   556 MB 
 Оцінка музики:   10/10 (Голосів: 10)
   
petsukh 
Новенький


З нами з: 05.05.09
Востаннє: 08.12.16
Повідомлень: 22

2014-03-20 03:26  
Що за "ТИК" на обкладинці?
boroznaya 
VIP


З нами з: 02.11.12
Востаннє: 09.12.16
Повідомлень: 1885

2014-05-07 11:12  
А з 1 по 4 частину можете викласти? Спасибі!
Ваш часовий пояс: GMT + 2 Години

Нова тема   Відповісти