Завантажити та скачати торренти українською


VA - Український бум 10 (2010) [FLAC] | Pop

Нові коментарі

Нова тема   Відповісти
Автор Повідомлення
inki 
VIP


З нами з: 24.10.09
Востаннє: 13.10.16
Повідомлень: 380

2014-03-18 15:18  
VA - Український бум 10 (2010) [FLAC] | Pop

VA - Український бум 10 (2010) [FLAC] | Pop


Стиль: Pop
Країна: Україна, Київ
Видавець: ArturMusic
Пісні:
    01. Лама - Тримай
    02. Океан Ельзи - Більше для нас
    03. Н. Валевська - Європа
    04. О. Пономарьов - Не віддам
    05. Т. Повалій і В.Сердючка - Ягодиці
    06. В.В. - Голубка
    07. ТІК - Чоловіче щастя
    08. С. Ротару - Чекай
    09. Н. Бучинська - А я то думала
    10. К. Бужинська і О. Шак - Сухая тополя
    11. М. Поплавський - Я коханець
    12. І. Бобул - Крила мрій моїх
    13. Е. Скиданова - Не питай
    14. А. Кудлай - Казали добрі люди
    15. С. Гіга - Бізнес-леді
    16. Ната-лі - Намалюй
    17. С. Весна - Чекання любові
    18. А. Заліско - Циганка
    19. О. Винник - Мої батьки
    20. А. Князь - Моя країна
log
Exact Audio Copy V1.0 beta 3 from 29. August 2011
Отчёт EAC об извлечении, выполненном 29. августа 2012, 22:58
- / Український Бум 10
Дисковод: TSSTcorpCDDVDW TS-L633J Adapter: 0 ID: 1
Режим чтения : Достоверность
Использование точного потока : Да
Отключение кэша аудио : Да
Использование указателей C2 : Нет
Коррекция смещения при чтении : 6
Способность читать области Lead-in и Lead-out : Нет
Заполнение пропущенных сэмплов тишиной : Да
Удаление блоков с тишиной в начале и конце : Нет
При вычислениях CRC использовались нулевые сэмплы : Да
Интерфейс : Встроенный Win32-интерфейс для Win NT/2000
Выходной формат : Пользовательский кодировщик
Выбранный битрейт : 1024 kBit/s
Качество : Высокий
Добавление ID3-тега : Нет
Утилита сжатия : C:\Program Files (x86)\Exact Audio Copy\FLAC\FLAC.EXE
Дополнительные параметры : -8 -V -T "ARTIST=%artist%" -T "TITLE=%title%" -T "ALBUM=%albumtitle%" -T "DATE=%year%" -T "TRACKNUMBER=%tracknr%" -T "GENRE=%genre%" -T "COMMENT=%comment%" -T "BAND=%albuminterpret%" -T "ALBUMARTIST=%albuminterpret%" -T "COMPOSER=%composer%" %haslyrics%--tag-from-file=LYRICS="%lyricsfile%"%haslyrics% -T "DISCNUMBER=%cdnumber%" -T "TOTALDISCS=%totalcds%" -T "TOTALTRACKS=%numtracks%" %hascover%--picture="%coverfile%"%hascover% %source% -o %dest%
TOC извлечённого CD
Трек | Старт | Длительность | Начальный сектор | Конечный сектор
---------------------------------------------------------------------
1 | 0:00.00 | 4:06.25 | 0 | 18474
2 | 4:06.25 | 3:30.54 | 18475 | 34278
3 | 7:37.04 | 3:07.69 | 34279 | 48372
4 | 10:44.73 | 3:46.61 | 48373 | 65383
5 | 14:31.59 | 3:27.34 | 65384 | 80942
6 | 17:59.18 | 3:16.42 | 80943 | 95684
7 | 21:15.60 | 3:02.53 | 95685 | 109387
8 | 24:18.38 | 3:37.63 | 109388 | 125725
9 | 27:56.26 | 4:11.46 | 125726 | 144596
10 | 32:07.72 | 3:44.42 | 144597 | 161438
11 | 35:52.39 | 3:34.41 | 161439 | 177529
12 | 39:27.05 | 5:15.63 | 177530 | 201217
13 | 44:42.68 | 3:33.71 | 201218 | 217263
14 | 48:16.64 | 3:59.24 | 217264 | 235212
15 | 52:16.13 | 3:56.13 | 235213 | 252925
16 | 56:12.26 | 2:57.40 | 252926 | 266240
17 | 59:09.66 | 3:56.72 | 266241 | 284012
18 | 63:06.63 | 4:16.28 | 284013 | 303240
19 | 67:23.16 | 4:19.19 | 303241 | 322684
20 | 71:42.35 | 3:19.62 | 322685 | 337671
Характеристики диапазона извлечения и сообщения об ошибках
Выбранный диапазон
Имя файла D:\Український Бум 10\Український Бум 10.wav
Пиковый уровень 100.0 %
Скорость извлечения 3.2 X
Качество диапазона 99.9 %
CRC теста DCECF16C
CRC копии DCECF16C
Копирование... OK
Ошибок не произошло
AccurateRip: сводка
Трек 1 отсутствует в базе данных
Трек 2 отсутствует в базе данных
Трек 3 отсутствует в базе данных
Трек 4 отсутствует в базе данных
Трек 5 отсутствует в базе данных
Трек 6 отсутствует в базе данных
Трек 7 отсутствует в базе данных
Трек 8 отсутствует в базе данных
Трек 9 отсутствует в базе данных
Трек 10 отсутствует в базе данных
Трек 11 отсутствует в базе данных
Трек 12 отсутствует в базе данных
Трек 13 отсутствует в базе данных
Трек 14 отсутствует в базе данных
Трек 15 отсутствует в базе данных
Трек 16 отсутствует в базе данных
Трек 17 отсутствует в базе данных
Трек 18 отсутствует в базе данных
Трек 19 отсутствует в базе данных
Трек 20 отсутствует в базе данных
Ни одного трека нет в базе AccurateRip
Конец отчёта
.Cue
REM GENRE Pop
REM DATE 2010
REM DISCID 45119614
REM COMMENT "ExactAudioCopy v1.0b3"
PERFORMER ""
TITLE "Український Бум 10"
FILE "Український Бум 10.flac" WAVE
TRACK 01 AUDIO
TITLE "Тримай"
PERFORMER "Лама"
FLAGS DCP
INDEX 01 00:00:00
TRACK 02 AUDIO
TITLE "Більше для нас"
PERFORMER "Океан Ельзи"
FLAGS DCP
INDEX 00 04:04:25
INDEX 01 04:06:25
TRACK 03 AUDIO
TITLE "Європа"
PERFORMER "Н. Валевська"
FLAGS DCP
INDEX 00 07:35:04
INDEX 01 07:37:04
TRACK 04 AUDIO
TITLE "Не віддам"
PERFORMER "О. Пономарьов"
FLAGS DCP
INDEX 00 10:42:73
INDEX 01 10:44:73
TRACK 05 AUDIO
TITLE "Ягодиці"
PERFORMER "Т. Повалій і В.Сердючка"
FLAGS DCP
INDEX 00 14:29:59
INDEX 01 14:31:59
TRACK 06 AUDIO
TITLE "Голубка"
PERFORMER "В.В."
FLAGS DCP
INDEX 00 17:57:18
INDEX 01 17:59:18
TRACK 07 AUDIO
TITLE "Чоловіче щастя"
PERFORMER "ТІК"
FLAGS DCP
INDEX 00 21:13:60
INDEX 01 21:15:60
TRACK 08 AUDIO
TITLE "Чекай"
PERFORMER "С. Ротару"
FLAGS DCP
INDEX 00 24:16:38
INDEX 01 24:18:38
TRACK 09 AUDIO
TITLE "А я то думала"
PERFORMER "Н. Бучинська"
FLAGS DCP
INDEX 00 27:54:26
INDEX 01 27:56:26
TRACK 10 AUDIO
TITLE "Сухая тополя"
PERFORMER "Н. Бужинська і О. Шак"
FLAGS DCP
INDEX 00 32:05:72
INDEX 01 32:07:72
TRACK 11 AUDIO
TITLE "Я коханець"
PERFORMER "М. Поплавський"
FLAGS DCP
INDEX 00 35:50:39
INDEX 01 35:52:39
TRACK 12 AUDIO
TITLE "Крила мрій моїх"
PERFORMER "І. Бобул"
FLAGS DCP
INDEX 00 39:25:05
INDEX 01 39:27:05
TRACK 13 AUDIO
TITLE "Не питай"
PERFORMER "Е. Скиданова"
FLAGS DCP
INDEX 00 44:40:68
INDEX 01 44:42:68
TRACK 14 AUDIO
TITLE "Казали добрі люди"
PERFORMER "А. Кудлай"
FLAGS DCP
INDEX 00 48:14:64
INDEX 01 48:16:64
TRACK 15 AUDIO
TITLE "Бізнес-леді"
PERFORMER "С. Гіга"
FLAGS DCP
INDEX 00 52:14:13
INDEX 01 52:16:13
TRACK 16 AUDIO
TITLE "Намалюй"
PERFORMER "Ната-лі"
FLAGS DCP
INDEX 00 56:10:26
INDEX 01 56:12:26
TRACK 17 AUDIO
TITLE "Чекання любові"
PERFORMER "С. Весна"
FLAGS DCP
INDEX 00 59:07:66
INDEX 01 59:09:66
TRACK 18 AUDIO
TITLE "Циганка"
PERFORMER "А. Заліско"
FLAGS DCP
INDEX 00 63:04:63
INDEX 01 63:06:63
TRACK 19 AUDIO
TITLE "Мої батьки"
PERFORMER "О. Віннік"
FLAGS DCP
INDEX 00 67:21:16
INDEX 01 67:23:16
TRACK 20 AUDIO
TITLE "Моя країна"
PERFORMER "А. Князь"
FLAGS DCP
INDEX 00 71:40:35
INDEX 01 71:42:35
Тривалість: 01:15:02
Мова: українська
Аудіо-кодек: FLAC
Бітрейт: 1024кб/с
Джерело: 40years


Срібний реліз (на рейтинг впливає 50% завантаженого)
 Трекер:    Зареєстрований   

Завантажити / скачати українську музику



відео для новачків



 Зареєстрований:   2014-03-18 15:18
 Розмір:   550 MB 
 Оцінка музики:   10/10 (Голосів: 4)
   
Ваш часовий пояс: GMT + 2 Години

Нова тема   Відповісти