Завантажити та скачати торренти українською


VA - Український бум 9 (2008) [FLAC] | Pop

Нові коментарі

Нова тема   Відповісти
Останній раз роздавалося dfyz2 (2016-12-02)
Автор Повідомлення
inki 
VIP


З нами з: 24.10.09
Востаннє: 13.10.16
Повідомлень: 380

2014-03-18 15:06  
VA - Український бум 9 (2008) [FLAC] | Pop

VA - Український бум 9 (2008) [FLAC] | Pop


Стиль: Pop
Країна: Україна
Видавець: ArturMusic
Пісні:
    01. ТІК - Білі троянди
    02. Н. Бучинська - Карпати
    03. Мандри - Коло млину
    04. Потешная палата - Кришталевий храм
    05. І. Бобул - Вогонь мого кохання
    06. М. Поплавський - Богиня
    07. О. Пономарьов - Кохати
    08. О. Винник - Тільки ти одна
    09. О. Білозір - Чарівне зілля
    10. О. Гаврилюк і Р. Квітка - Гріх
    11. Золоте кольцо - Сопілочка
    12. А. Кудлай - Слава, Україні
    13. О. Пекун і В. Радченко - За любов і волю
    14. О. Пономарьов - Маріє
    15. А. Князь - Гуцулка Ксеня
    16. І. Федишин - Батьки мої
    17. С. Весна - Мій рідний край
    18. І. Бобул - Щастя мить
    19. Т. Повалій - Віночок
    20. О. Винник - Повертай до дому
log
Exact Audio Copy V1.0 beta 3 from 29. August 2011
Отчёт EAC об извлечении, выполненном 29. августа 2012, 22:00
Various Artists / Український Бум 9
Дисковод: TSSTcorpCDDVDW TS-L633J Adapter: 0 ID: 1
Режим чтения : Достоверность
Использование точного потока : Да
Отключение кэша аудио : Да
Использование указателей C2 : Нет
Коррекция смещения при чтении : 6
Способность читать области Lead-in и Lead-out : Нет
Заполнение пропущенных сэмплов тишиной : Да
Удаление блоков с тишиной в начале и конце : Нет
При вычислениях CRC использовались нулевые сэмплы : Да
Интерфейс : Встроенный Win32-интерфейс для Win NT/2000
Выходной формат : Пользовательский кодировщик
Выбранный битрейт : 1024 kBit/s
Качество : Высокий
Добавление ID3-тега : Нет
Утилита сжатия : C:\Program Files (x86)\Exact Audio Copy\FLAC\FLAC.EXE
Дополнительные параметры : -8 -V -T "ARTIST=%artist%" -T "TITLE=%title%" -T "ALBUM=%albumtitle%" -T "DATE=%year%" -T "TRACKNUMBER=%tracknr%" -T "GENRE=%genre%" -T "COMMENT=%comment%" -T "BAND=%albuminterpret%" -T "ALBUMARTIST=%albuminterpret%" -T "COMPOSER=%composer%" %haslyrics%--tag-from-file=LYRICS="%lyricsfile%"%haslyrics% -T "DISCNUMBER=%cdnumber%" -T "TOTALDISCS=%totalcds%" -T "TOTALTRACKS=%numtracks%" %hascover%--picture="%coverfile%"%hascover% %source% -o %dest%
TOC извлечённого CD
Трек | Старт | Длительность | Начальный сектор | Конечный сектор
---------------------------------------------------------------------
1 | 0:00.00 | 3:47.19 | 0 | 17043
2 | 3:47.19 | 3:33.25 | 17044 | 33043
3 | 7:20.44 | 3:11.05 | 33044 | 47373
4 | 10:31.49 | 4:21.08 | 47374 | 66956
5 | 14:52.57 | 3:41.66 | 66957 | 83597
6 | 18:34.48 | 4:10.63 | 83598 | 102410
7 | 22:45.36 | 3:23.11 | 102411 | 117646
8 | 26:08.47 | 3:12.61 | 117647 | 132107
9 | 29:21.33 | 3:29.37 | 132108 | 147819
10 | 32:50.70 | 4:11.38 | 147820 | 166682
11 | 37:02.33 | 2:36.39 | 166683 | 178421
12 | 39:38.72 | 4:21.28 | 178422 | 198024
13 | 44:00.25 | 3:12.33 | 198025 | 212457
14 | 47:12.58 | 4:24.06 | 212458 | 232263
15 | 51:36.64 | 3:09.18 | 232264 | 246456
16 | 54:46.07 | 3:03.62 | 246457 | 260243
17 | 57:49.69 | 3:38.59 | 260244 | 276652
18 | 61:28.53 | 4:05.26 | 276653 | 295053
19 | 65:34.04 | 3:27.21 | 295054 | 310599
20 | 69:01.25 | 3:35.59 | 310600 | 326783
Характеристики диапазона извлечения и сообщения об ошибках
Выбранный диапазон
Имя файла D:\Укрвїнський Бум 9\Various Artists - Український Бум 9.wav
Пиковый уровень 95.0 %
Скорость извлечения 3.4 X
Качество диапазона 100.0 %
CRC теста 06641144
CRC копии 06641144
Копирование... OK
Ошибок не произошло
AccurateRip: сводка
Трек 1 отсутствует в базе данных
Трек 2 отсутствует в базе данных
Трек 3 отсутствует в базе данных
Трек 4 отсутствует в базе данных
Трек 5 отсутствует в базе данных
Трек 6 отсутствует в базе данных
Трек 7 отсутствует в базе данных
Трек 8 отсутствует в базе данных
Трек 9 отсутствует в базе данных
Трек 10 отсутствует в базе данных
Трек 11 отсутствует в базе данных
Трек 12 отсутствует в базе данных
Трек 13 отсутствует в базе данных
Трек 14 отсутствует в базе данных
Трек 15 отсутствует в базе данных
Трек 16 отсутствует в базе данных
Трек 17 отсутствует в базе данных
Трек 18 отсутствует в базе данных
Трек 19 отсутствует в базе данных
Трек 20 отсутствует в базе данных
Ни одного трека нет в базе AccurateRip
Конец отчёта
.Cue
REM GENRE Pop
REM DATE 2010
REM DISCID 27110514
REM COMMENT "ExactAudioCopy v1.0b3"
PERFORMER "Various Artists"
TITLE "Український Бум 9"
FILE "Various Artists - Український Бум 9.flac" WAVE
TRACK 01 AUDIO
TITLE "Білі троянди"
PERFORMER "ТІК"
FLAGS DCP
INDEX 01 00:00:00
TRACK 02 AUDIO
TITLE "Карпати"
PERFORMER "Н. Бучинська"
FLAGS DCP
INDEX 00 03:45:19
INDEX 01 03:47:19
TRACK 03 AUDIO
TITLE "Коло млину"
PERFORMER "Мандри"
FLAGS DCP
INDEX 00 07:18:44
INDEX 01 07:20:44
TRACK 04 AUDIO
TITLE "Кришталевий храм"
PERFORMER "Потешная палата"
FLAGS DCP
INDEX 00 10:29:49
INDEX 01 10:31:49
TRACK 05 AUDIO
TITLE "Вогонь мого кохання"
PERFORMER "І. Бобул"
FLAGS DCP
INDEX 00 14:50:57
INDEX 01 14:52:57
TRACK 06 AUDIO
TITLE "Богиня"
PERFORMER "М. Поплавський"
FLAGS DCP
INDEX 00 18:32:48
INDEX 01 18:34:48
TRACK 07 AUDIO
TITLE "Кохати"
PERFORMER "О. Пономарьов"
FLAGS DCP
INDEX 00 22:43:36
INDEX 01 22:45:36
TRACK 08 AUDIO
TITLE "Тільки ти одна"
PERFORMER "О. Вінник"
FLAGS DCP
INDEX 00 26:06:47
INDEX 01 26:08:47
TRACK 09 AUDIO
TITLE "Чарівне зілля"
PERFORMER "О. Білозір"
FLAGS DCP
INDEX 00 29:19:33
INDEX 01 29:21:33
TRACK 10 AUDIO
TITLE "Гріх"
PERFORMER "О. Гаврилюк і Р. Квітка"
FLAGS DCP
INDEX 00 32:48:70
INDEX 01 32:50:70
TRACK 11 AUDIO
TITLE "Сопілочка"
PERFORMER "Золоте кольцо"
FLAGS DCP
INDEX 00 37:00:33
INDEX 01 37:02:33
TRACK 12 AUDIO
TITLE "Слава, Україні"
PERFORMER "А. Кудлай"
FLAGS DCP
INDEX 00 39:36:72
INDEX 01 39:38:72
TRACK 13 AUDIO
TITLE "За любов і волю"
PERFORMER "О. Пекун і В. Радченко"
FLAGS DCP
INDEX 00 43:58:25
INDEX 01 44:00:25
TRACK 14 AUDIO
TITLE "Маріє"
PERFORMER "О. Пономарьов"
FLAGS DCP
INDEX 00 47:10:58
INDEX 01 47:12:58
TRACK 15 AUDIO
TITLE "Гуцулка Ксеня "
PERFORMER "А. Князь"
FLAGS DCP
INDEX 00 51:34:64
INDEX 01 51:36:64
TRACK 16 AUDIO
TITLE "Батьки мої"
PERFORMER "І. Федишина"
FLAGS DCP
INDEX 00 54:44:07
INDEX 01 54:46:07
TRACK 17 AUDIO
TITLE "Мій рідний край"
PERFORMER "С. Весна"
FLAGS DCP
INDEX 00 57:47:69
INDEX 01 57:49:69
TRACK 18 AUDIO
TITLE "Щастя мить"
PERFORMER "І. Бобул"
FLAGS DCP
INDEX 00 61:26:53
INDEX 01 61:28:53
TRACK 19 AUDIO
TITLE "Віночок"
PERFORMER "Т. Повалій"
FLAGS DCP
INDEX 00 65:32:04
INDEX 01 65:34:04
TRACK 20 AUDIO
TITLE "Повертай до дому"
PERFORMER "О. Віннік"
FLAGS DCP
INDEX 00 68:59:25
INDEX 01 69:01:25
Тривалість: 01:12:37
Мова: українська
Аудіо-кодек: FLAC
Бітрейт: 1024кб/с
Джерело: 40years


Срібний реліз (на рейтинг впливає 50% завантаженого)
 Трекер:    Зареєстрований   

Завантажити / скачати українську музику



відео для новачків



 Зареєстрований:   2014-03-18 15:06
 Розмір:   538 MB 
 Оцінка музики:   10/10 (Голосів: 3)
   
Ваш часовий пояс: GMT + 2 Години

Нова тема   Відповісти