Завантажити та скачати торренти українською


VA - Український бум 8 (2007) [FLAC] | Pop

Нові коментарі

Нова тема   Відповісти
Автор Повідомлення
inki 
VIP


З нами з: 24.10.09
Востаннє: 13.10.16
Повідомлень: 380

2014-03-18 08:24  
VA - Український бум 8 (2007) [FLAC] | Pop

VA - Український бум 8 (2007) [FLAC] | Pop


Стиль: Pop
Країна: Україна
Видавець: ArturMusic
Пісні:
    01. Н. Бучинська - Червоний мак
    02. С. Ротару - Туман
    03. В.Павлік - Мамо моя
    04. І. Бобул - Незабувай
    05. М. Гнатюк - Диво-квітка
    06. Ю. Рай - Заворожене щастя
    07. С. Гіга - Дружині
    08. І. Попович - Іванка-горянка
    09. А. Кудлай - Рідна Україна
    10. В. Грім - Прости
    11. Н. Кадишева і квартет Гетьман - Моя рідня
    12. Т. Піскарьова - Мелодія кохання
    13. В. Гуменчук, М.Михайлов, Н. Мельник - Кохана-коханий
    14. В. Білоножко - Пані та панове
    15. Е. Скиданова - Країна моя
    16. А. Ротару і М.Михайлов - Кибитка
    17. К. Бужинська і В.Грін - Сладкая любовь
    18. І. Бобул - Какое счастье
    19. П. Зібров - Дорогая
    20. М. Гнатюк - Галина
log
Exact Audio Copy V1.0 beta 3 from 29. August 2011
Отчёт EAC об извлечении, выполненном 1. сентября 2012, 10:17
Various Artists / Український бум - 8
Дисковод: TSSTcorpCDDVDW TS-L633J Adapter: 0 ID: 1
Режим чтения : Достоверность
Использование точного потока : Да
Отключение кэша аудио : Да
Использование указателей C2 : Нет
Коррекция смещения при чтении : 6
Способность читать области Lead-in и Lead-out : Нет
Заполнение пропущенных сэмплов тишиной : Да
Удаление блоков с тишиной в начале и конце : Нет
При вычислениях CRC использовались нулевые сэмплы : Да
Интерфейс : Встроенный Win32-интерфейс для Win NT/2000
Выходной формат : Пользовательский кодировщик
Выбранный битрейт : 1024 kBit/s
Качество : Высокий
Добавление ID3-тега : Нет
Утилита сжатия : C:\Program Files (x86)\Exact Audio Copy\FLAC\FLAC.EXE
Дополнительные параметры : -8 -V -T "ARTIST=%artist%" -T "TITLE=%title%" -T "ALBUM=%albumtitle%" -T "DATE=%year%" -T "TRACKNUMBER=%tracknr%" -T "GENRE=%genre%" -T "COMMENT=%comment%" -T "BAND=%albuminterpret%" -T "ALBUMARTIST=%albuminterpret%" -T "COMPOSER=%composer%" %haslyrics%--tag-from-file=LYRICS="%lyricsfile%"%haslyrics% -T "DISCNUMBER=%cdnumber%" -T "TOTALDISCS=%totalcds%" -T "TOTALTRACKS=%numtracks%" %hascover%--picture="%coverfile%"%hascover% %source% -o %dest%
TOC извлечённого CD
Трек | Старт | Длительность | Начальный сектор | Конечный сектор
---------------------------------------------------------------------
1 | 0:00.00 | 4:04.01 | 0 | 18300
2 | 4:04.01 | 3:05.29 | 18301 | 32204
3 | 7:09.30 | 3:57.46 | 32205 | 50025
4 | 11:07.01 | 3:31.74 | 50026 | 65924
5 | 14:39.00 | 3:45.26 | 65925 | 82825
6 | 18:24.26 | 3:14.25 | 82826 | 97400
7 | 21:38.51 | 4:34.39 | 97401 | 117989
8 | 26:13.15 | 4:18.21 | 117990 | 137360
9 | 30:31.36 | 4:52.17 | 137361 | 159277
10 | 35:23.53 | 3:49.47 | 159278 | 176499
11 | 39:13.25 | 3:16.56 | 176500 | 191255
12 | 42:30.06 | 3:48.56 | 191256 | 208411
13 | 46:18.62 | 3:38.34 | 208412 | 224795
14 | 49:57.21 | 3:30.46 | 224796 | 240591
15 | 53:27.67 | 4:21.01 | 240592 | 260167
16 | 57:48.68 | 3:50.28 | 260168 | 277445
17 | 61:39.21 | 3:37.43 | 277446 | 293763
18 | 65:16.64 | 4:25.64 | 293764 | 313702
19 | 69:42.53 | 5:08.66 | 313703 | 336868
20 | 74:51.44 | 4:38.23 | 336869 | 357741
Характеристики диапазона извлечения и сообщения об ошибках
Выбранный диапазон
Имя файла D:\Various Artists - Український бум - 8.2007(lossless)\Various Artists - Український бум - 8.wav
Пиковый уровень 92.2 %
Скорость извлечения 3.5 X
Качество диапазона 100.0 %
CRC теста 0513CEDA
CRC копии 0513CEDA
Копирование... OK
Ошибок не произошло
AccurateRip: сводка
Трек 1 отсутствует в базе данных
Трек 2 отсутствует в базе данных
Трек 3 отсутствует в базе данных
Трек 4 отсутствует в базе данных
Трек 5 отсутствует в базе данных
Трек 6 отсутствует в базе данных
Трек 7 отсутствует в базе данных
Трек 8 отсутствует в базе данных
Трек 9 отсутствует в базе данных
Трек 10 отсутствует в базе данных
Трек 11 отсутствует в базе данных
Трек 12 отсутствует в базе данных
Трек 13 отсутствует в базе данных
Трек 14 отсутствует в базе данных
Трек 15 отсутствует в базе данных
Трек 16 отсутствует в базе данных
Трек 17 отсутствует в базе данных
Трек 18 отсутствует в базе данных
Трек 19 отсутствует в базе данных
Трек 20 отсутствует в базе данных
Ни одного трека нет в базе AccurateRip
Конец отчёта
.Cue
REM GENRE pop
REM DATE 2007
REM DISCID 2012A114
REM COMMENT "ExactAudioCopy v1.0b3"
PERFORMER "Various Artists"
TITLE "Український бум - 8"
FILE "Various Artists - Український бум - 8.flac" WAVE
TRACK 01 AUDIO
TITLE "Червоний мак"
PERFORMER "Н. Бучинська"
FLAGS DCP
INDEX 01 00:00:00
TRACK 02 AUDIO
TITLE "Туман"
PERFORMER "С. Ротару"
FLAGS DCP
INDEX 00 04:02:01
INDEX 01 04:04:01
TRACK 03 AUDIO
TITLE "Мамо моя"
PERFORMER "В.Павлик"
FLAGS DCP
INDEX 00 07:07:30
INDEX 01 07:09:30
TRACK 04 AUDIO
TITLE "Незабувай"
PERFORMER "І. Бобул"
FLAGS DCP
INDEX 00 11:05:01
INDEX 01 11:07:01
TRACK 05 AUDIO
TITLE "Диво-квітка"
PERFORMER "М. Гнатюк"
FLAGS DCP
INDEX 00 14:37:00
INDEX 01 14:39:00
TRACK 06 AUDIO
TITLE "Заворожене щастя"
PERFORMER "Ю. Рай"
FLAGS DCP
INDEX 00 18:22:26
INDEX 01 18:24:26
TRACK 07 AUDIO
TITLE "Дружині"
PERFORMER "С. Гіга"
FLAGS DCP
INDEX 00 21:36:51
INDEX 01 21:38:51
TRACK 08 AUDIO
TITLE "Иванка-горянка"
PERFORMER "І. Попович"
FLAGS DCP
INDEX 00 26:11:15
INDEX 01 26:13:15
TRACK 09 AUDIO
TITLE "Рідна Україна"
PERFORMER "А. Кудлай"
FLAGS DCP
INDEX 00 30:29:36
INDEX 01 30:31:36
TRACK 10 AUDIO
TITLE "Прости"
PERFORMER "В. Грім"
FLAGS DCP
INDEX 00 35:21:53
INDEX 01 35:23:53
TRACK 11 AUDIO
TITLE "Моя рідня"
PERFORMER "Н. Кадишева і квартет Гетьман"
FLAGS DCP
INDEX 00 39:11:25
INDEX 01 39:13:25
TRACK 12 AUDIO
TITLE "Мелодія кохання"
PERFORMER "Т. Піскарьова"
FLAGS DCP
INDEX 00 42:28:06
INDEX 01 42:30:06
TRACK 13 AUDIO
TITLE "Кохана-коханий"
PERFORMER "В. Гуменчук и М.МихайловН. Мельник"
FLAGS DCP
INDEX 00 46:16:62
INDEX 01 46:18:62
TRACK 14 AUDIO
TITLE "Пані та панове"
PERFORMER "В. Білоножко"
FLAGS DCP
INDEX 00 49:55:21
INDEX 01 49:57:21
TRACK 15 AUDIO
TITLE "Країна моя"
PERFORMER "Е. Скиданова"
FLAGS DCP
INDEX 00 53:25:67
INDEX 01 53:27:67
TRACK 16 AUDIO
TITLE "Кибитка"
PERFORMER "А. Ротару и М.Михайлов"
FLAGS DCP
INDEX 00 57:46:68
INDEX 01 57:48:68
TRACK 17 AUDIO
TITLE "Сладкая любовь"
PERFORMER "Н. Бужинськая и В.Грин"
FLAGS DCP
INDEX 00 61:37:21
INDEX 01 61:39:21
TRACK 18 AUDIO
TITLE "Какое счастье"
PERFORMER "І. Бобул"
FLAGS DCP
INDEX 00 65:14:64
INDEX 01 65:16:64
TRACK 19 AUDIO
TITLE "Дорогая"
PERFORMER "П. Зиброа"
FLAGS DCP
INDEX 00 69:40:53
INDEX 01 69:42:53
TRACK 20 AUDIO
TITLE "Галина"
PERFORMER "Н. Гнатюк"
FLAGS DCP
INDEX 00 74:49:44
INDEX 01 74:51:44
Тривалість: 01:19:30
Мова: українська, російська (16-20)
Аудіо-кодек: FLAC
Бітрейт: 1024кб/с
Джерело: 40years


Срібний реліз (на рейтинг впливає 50% завантаженого)
 Трекер:    Зареєстрований   

Завантажити / скачати українську музику



відео для новачків



 Зареєстрований:   2014-03-18 08:25
 Розмір:   581 MB 
 Оцінка музики:   10/10 (Голосів: 2)
   
Х-Хед 
VIP


З нами з: 06.05.12
Востаннє: 12.11.16
Повідомлень: 297

2014-03-18 09:10  
Чверть пісень російською. Я би таке не називав словосполученням "Український бум" (не дарма через такі толерації нас називають хохлами)
ssTAss 
Модератор музики


З нами з: 05.07.08
Востаннє: 09.12.16
Повідомлень: 10948

2014-03-18 20:17  
inki написано:
Мова: українська

плюс до тих зауважень http://toloka.to/t54783
якщо є різні мови, то це треба вказувати потреково

Ваш часовий пояс: GMT + 2 Години

Нова тема   Відповісти