Завантажити та скачати торренти українською


VA - Український бум 6 (2005) [FLAC] | Pop

Нові коментарі

Нова тема   Відповісти
Автор Повідомлення
inki 
VIP


З нами з: 24.10.09
Востаннє: 13.10.16
Повідомлень: 380

2014-03-18 08:04  
VA - Український бум 6 (2005) [FLAC] | Pop

VA - Український бум 6 (2005) [FLAC] | Pop

Стиль: Pop
Країна: Україна
Видавець: ArturMusic
Пісні:
    1.Не забудь (Н. Бучинська)
    2. Весна (Віктор Павлік)
    3. Мамо, моя мамо (Дмитро Гнатюк)
    4. Сало (Михайло Поплавський)
    5. Дикий мед (О. Богданович)
    6. А ми удвох (В. Леонтьев)
    7. Тільки ти (Павло Зібров)
    8. Червона ружа (К. Бужинська)
    9. Мамина сорочка (О. Кобилянська)
    10. Перше кохання (Н. Бучинська)
    11. Зоряні побачення (Лебеді Кохання)
    12. Доленька (А. Ротару)
    13. Київ і кияни (Іво Бобул)
    14. Карпатський край (Іван Попович)
    15. Друзям (Алла Кудлай)
    16. Квітка-душа (Ніна Матвієнко)
    17. Ти, моя Україно (М. Басков)
    18. Весілля у Карпатах (Віктор Павлік)
    19. Нормально (хор "Берегиня")
    20. Грішна любов (Н. Бучинська)
    21. Хай завжди буде добре (М. Гнатюк)
log
Exact Audio Copy V1.0 beta 3 from 29. August 2011
Отчёт EAC об извлечении, выполненном 31. августа 2012, 23:05
Various Artists / Український бум
Дисковод: TSSTcorpCDDVDW TS-L633J Adapter: 0 ID: 1
Режим чтения : Достоверность
Использование точного потока : Да
Отключение кэша аудио : Да
Использование указателей C2 : Нет
Коррекция смещения при чтении : 6
Способность читать области Lead-in и Lead-out : Нет
Заполнение пропущенных сэмплов тишиной : Да
Удаление блоков с тишиной в начале и конце : Нет
При вычислениях CRC использовались нулевые сэмплы : Да
Интерфейс : Встроенный Win32-интерфейс для Win NT/2000
Выходной формат : Пользовательский кодировщик
Выбранный битрейт : 1024 kBit/s
Качество : Высокий
Добавление ID3-тега : Нет
Утилита сжатия : C:\Program Files (x86)\Exact Audio Copy\FLAC\FLAC.EXE
Дополнительные параметры : -8 -V -T "ARTIST=%artist%" -T "TITLE=%title%" -T "ALBUM=%albumtitle%" -T "DATE=%year%" -T "TRACKNUMBER=%tracknr%" -T "GENRE=%genre%" -T "COMMENT=%comment%" -T "BAND=%albuminterpret%" -T "ALBUMARTIST=%albuminterpret%" -T "COMPOSER=%composer%" %haslyrics%--tag-from-file=LYRICS="%lyricsfile%"%haslyrics% -T "DISCNUMBER=%cdnumber%" -T "TOTALDISCS=%totalcds%" -T "TOTALTRACKS=%numtracks%" %hascover%--picture="%coverfile%"%hascover% %source% -o %dest%
TOC извлечённого CD
Трек | Старт | Длительность | Начальный сектор | Конечный сектор
---------------------------------------------------------------------
1 | 0:00.00 | 4:09.26 | 0 | 18700
2 | 4:09.26 | 4:00.68 | 18701 | 36768
3 | 8:10.19 | 3:08.40 | 36769 | 50908
4 | 11:18.59 | 3:29.41 | 50909 | 66624
5 | 14:48.25 | 3:27.55 | 66625 | 82204
6 | 18:16.05 | 3:18.72 | 82205 | 97126
7 | 21:35.02 | 3:32.12 | 97127 | 113038
8 | 25:07.14 | 3:16.71 | 113039 | 127809
9 | 28:24.10 | 3:56.28 | 127810 | 145537
10 | 32:20.38 | 3:20.08 | 145538 | 160545
11 | 35:40.46 | 4:11.58 | 160546 | 179428
12 | 39:52.29 | 4:12.35 | 179429 | 198363
13 | 44:04.64 | 4:21.25 | 198364 | 217963
14 | 48:26.14 | 3:14.29 | 217964 | 232542
15 | 51:40.43 | 4:12.44 | 232543 | 251486
16 | 55:53.12 | 4:30.74 | 251487 | 271810
17 | 60:24.11 | 3:14.23 | 271811 | 286383
18 | 63:38.34 | 4:18.32 | 286384 | 305765
19 | 67:56.66 | 3:37.39 | 305766 | 322079
20 | 71:34.30 | 3:45.30 | 322080 | 338984
21 | 75:19.60 | 4:01.02 | 338985 | 357061
Характеристики диапазона извлечения и сообщения об ошибках
Выбранный диапазон
Имя файла D:\Various Artists - Український бум.2004(lossless)\Various Artists - Український бум.wav
Пиковый уровень 100.0 %
Скорость извлечения 3.4 X
Качество диапазона 99.9 %
CRC теста 7FED6EED
CRC копии 7FED6EED
Копирование... OK
Ошибок не произошло
AccurateRip: сводка
Трек 1 отсутствует в базе данных
Трек 2 отсутствует в базе данных
Трек 3 отсутствует в базе данных
Трек 4 отсутствует в базе данных
Трек 5 отсутствует в базе данных
Трек 6 отсутствует в базе данных
Трек 7 отсутствует в базе данных
Трек 8 отсутствует в базе данных
Трек 9 отсутствует в базе данных
Трек 10 отсутствует в базе данных
Трек 11 отсутствует в базе данных
Трек 12 отсутствует в базе данных
Трек 13 отсутствует в базе данных
Трек 14 отсутствует в базе данных
Трек 15 отсутствует в базе данных
Трек 16 отсутствует в базе данных
Трек 17 отсутствует в базе данных
Трек 18 отсутствует в базе данных
Трек 19 отсутствует в базе данных
Трек 20 отсутствует в базе данных
Трек 21 отсутствует в базе данных
Ни одного трека нет в базе AccurateRip
Конец отчёта
.Cue
REM GENRE pop
REM DATE 2005
REM DISCID 33129815
REM COMMENT "ExactAudioCopy v1.0b3"
PERFORMER "Various Artists"
TITLE "Український бум"
FILE "Various Artists - Український бум.flac" WAVE
TRACK 01 AUDIO
TITLE "Не забудь"
PERFORMER "Н. Бучинська"
INDEX 01 00:00:00
TRACK 02 AUDIO
TITLE "Весна"
PERFORMER "В. Павлік"
INDEX 01 04:09:26
TRACK 03 AUDIO
TITLE "Мамо, моя мамо"
PERFORMER "М. Гнатюк"
INDEX 01 08:10:19
TRACK 04 AUDIO
TITLE "Сало"
PERFORMER "М. Поплавський"
INDEX 01 11:18:59
TRACK 05 AUDIO
TITLE "Дикий мед"
PERFORMER "О. Богданович"
INDEX 01 14:48:25
TRACK 06 AUDIO
TITLE "А ми у двох"
PERFORMER "В. Леонтьев"
INDEX 01 18:16:05
TRACK 07 AUDIO
TITLE "Тільки ти"
PERFORMER "П. Зібров"
INDEX 01 21:35:02
TRACK 08 AUDIO
TITLE "Червона ружа"
PERFORMER "К. Бужинская"
INDEX 01 25:07:14
TRACK 09 AUDIO
TITLE "Мамина сорочка"
PERFORMER "О. Кобилянська"
INDEX 01 28:24:10
TRACK 10 AUDIO
TITLE "Перше кохання"
PERFORMER "Н. Бучинська"
INDEX 01 32:20:38
TRACK 11 AUDIO
TITLE "Зоряні наші побачення"
PERFORMER "Гурт 'Лебеді кохання'"
INDEX 01 35:40:46
TRACK 12 AUDIO
TITLE "Доленька"
PERFORMER "А. Ротару"
INDEX 01 39:52:29
TRACK 13 AUDIO
TITLE "Київ і кияни"
PERFORMER "І. Бобул"
INDEX 01 44:04:64
TRACK 14 AUDIO
TITLE "Карпатський край"
PERFORMER "І. Попович"
INDEX 01 48:26:14
TRACK 15 AUDIO
TITLE "Друзям"
PERFORMER "А. Кудлай"
INDEX 01 51:40:43
TRACK 16 AUDIO
TITLE "Квітка-душа"
PERFORMER "Н. Матвіенко"
INDEX 01 55:53:12
TRACK 17 AUDIO
TITLE "Ти, моя Україно"
PERFORMER "М. Басков"
INDEX 01 60:24:11
TRACK 18 AUDIO
TITLE "Весілля у Карпатах"
PERFORMER "В. Павлік"
INDEX 01 63:38:34
TRACK 19 AUDIO
TITLE "Нормально"
PERFORMER "Р. Писанка, А.Федорцов і хор 'Берегиня'"
INDEX 01 67:56:66
TRACK 20 AUDIO
TITLE "Грішна любов"
PERFORMER "Н. Бучинська"
INDEX 01 71:34:30
TRACK 21 AUDIO
TITLE "Хай завжди буде добре"
PERFORMER "М. Гнатюк"
INDEX 01 75:19:60
Тривалість: 01:19:21
Мова: українська
Аудіо-кодек: FLAC
Бітрейт: 1024кб/с
Джерело: 40years


Срібний реліз (на рейтинг впливає 50% завантаженого)
 Трекер:    Зареєстрований   

Завантажити / скачати українську музику



відео для новачків



 Зареєстрований:   2014-03-18 08:04
 Розмір:   612 MB 
 Оцінка музики:   10/10 (Голосів: 4)
   
ssTAss 
Модератор музики


З нами з: 05.07.08
Востаннє: 11.12.16
Повідомлень: 10958

2014-03-18 20:15  
inki написано:
VA-Український бум 6 (2005) [FLAC] Pop

VA - Український бум 6 (2005) [FLAC] | Pop
далі
обкладинка має бути в межах 600 на 600
список пісень треба писати не в графі "виконавці", а "пісні"
inki написано:
Тривалість: 75:19:60

??
тривалість має бути - години:хвилини:секунди
ці зауваження стосуються всіх Ваших сьогоднішніх релізів

civ 
VIP


З нами з: 16.02.11
Востаннє: 10.12.16
Повідомлень: 429

2014-03-18 21:13  
Може, варто було засунути всі ці збірки в один реліз?
ssTAss 
Модератор музики


З нами з: 05.07.08
Востаннє: 11.12.16
Повідомлень: 10958

2014-03-19 13:53  
inki
я ж написав покроково що треба зробити
якщо не зрозуміло, то краще перепитайте, а не просто тисніть "виправлено"
ssTAss написано:
VA - Український бум 6 (2005) [FLAC] | Pop

просто скопіюйте (зі всіма пропусками і рисками)
ssTAss написано:
обкладинка має бути в межах 600 на 600

604 - це не ДО 600, не вважаєте?
ssTAss написано:
список пісень треба писати не в графі "виконавці", а "пісні"

не дані чи виконавці - ПІСНІ
і не треба брати їх під спойлер (не такий від довгий список)

Додано через 1 хвилину 23 секунди:

виправив сам оцей реліз http://toloka.to//viewtopic.php?t=54782
прошу зробити по аналогії

Ваш часовий пояс: GMT + 2 Години

Нова тема   Відповісти