Завантажити та скачати торренти українською


VA - Український бум 5 (2004) [FLAC] | Pop

Нові коментарі

Нова тема   Відповісти
Автор Повідомлення
inki 
VIP


З нами з: 24.10.09
Востаннє: 13.10.16
Повідомлень: 380

2014-03-18 07:51  
VA - Український бум 5 (2004) [FLAC] | Pop



Стиль: Pop
Країна: Україна
Видавець: ArturMusic
Пісні:
    1. Наталія Бучинська - Дівчина-Весна
    2. Оксана Білозір - Очі волошкові
    3. Віктор Павлік - Нема з ким
    4. Олександр Малінін - Де ти тепер
    5. Н. Корольова - Лелеки
    6. Таїсія Повалій - Серденько
    7. Іван Попович - Коло річки-броду
    8. Іво Бобул - Монахиня
    9. Алла Кудлай - Спасибо за любовь
    10. Павло Зібров - Шахтёрские жёны
    11. Віктор Кавун - Кохання в сорок років
    12. Іван Попович - Мені не спиться
    13. Ауріка Ротару - Сопілка
    14. Юлія Бодай - Двічі в одну річку не ввійдеш
    15. Степан Гіга - Чорні троянди
    16. Олександр Тищенко - Я не хочу
    17. Віталій і Світлана Білоножки - Біле та чорне
    18. Софія Ротару - Чекай
    19. Наталія Бучинська - Україна
    20. Іво Бобул - Все золото світу
Log
Exact Audio Copy V1.0 beta 3 from 29. August 2011

Отчёт EAC об извлечении, выполненном 1. сентября 2012, 1:06

Various Artists / Український бум 5

Дисковод: TSSTcorpCDDVDW TS-L633J Adapter: 0 ID: 1

Режим чтения : Достоверность
Использование точного потока : Да
Отключение кэша аудио : Да
Использование указателей C2 : Нет

Коррекция смещения при чтении : 6
Способность читать области Lead-in и Lead-out : Нет
Заполнение пропущенных сэмплов тишиной : Да
Удаление блоков с тишиной в начале и конце : Нет
При вычислениях CRC использовались нулевые сэмплы : Да
Интерфейс : Встроенный Win32-интерфейс для Win NT/2000

Выходной формат : Пользовательский кодировщик
Выбранный битрейт : 1024 kBit/s
Качество : Высокий
Добавление ID3-тега : Нет
Утилита сжатия : C:\Program Files (x86)\Exact Audio Copy\FLAC\FLAC.EXE
Дополнительные параметры : -8 -V -T "ARTIST=%artist%" -T "TITLE=%title%" -T "ALBUM=%albumtitle%" -T "DATE=%year%" -T "TRACKNUMBER=%tracknr%" -T "GENRE=%genre%" -T "COMMENT=%comment%" -T "BAND=%albuminterpret%" -T "ALBUMARTIST=%albuminterpret%" -T "COMPOSER=%composer%" %haslyrics%--tag-from-file=LYRICS="%lyricsfile%"%haslyrics% -T "DISCNUMBER=%cdnumber%" -T "TOTALDISCS=%totalcds%" -T "TOTALTRACKS=%numtracks%" %hascover%--picture="%coverfile%"%hascover% %source% -o %dest%

TOC извлечённого CD

Трек | Старт | Длительность | Начальный сектор | Конечный сектор
---------------------------------------------------------------------
1 | 0:00.00 | 3:56.07 | 0 | 17706
2 | 3:56.07 | 3:26.27 | 17707 | 33183
3 | 7:22.34 | 3:58.31 | 33184 | 51064
4 | 11:20.65 | 3:08.52 | 51065 | 65216
5 | 14:29.42 | 3:53.71 | 65217 | 82762
6 | 18:23.38 | 3:11.64 | 82763 | 97151
7 | 21:35.27 | 3:29.71 | 97152 | 112897
8 | 25:05.23 | 5:03.73 | 112898 | 135695
9 | 30:09.21 | 4:08.10 | 135696 | 154305
10 | 34:17.31 | 4:19.33 | 154306 | 173763
11 | 38:36.64 | 3:31.57 | 173764 | 189645
12 | 42:08.46 | 3:46.36 | 189646 | 206631
13 | 45:55.07 | 3:27.01 | 206632 | 222157
14 | 49:22.08 | 3:05.46 | 222158 | 236078
15 | 52:27.54 | 4:59.62 | 236079 | 258565
16 | 57:27.41 | 4:24.05 | 258566 | 278370
17 | 61:51.46 | 4:07.71 | 278371 | 296966
18 | 65:59.42 | 3:36.29 | 296967 | 313195
19 | 69:35.71 | 4:30.73 | 313196 | 333518
20 | 74:06.69 | 4:14.11 | 333519 | 352579

Характеристики диапазона извлечения и сообщения об ошибках

Выбранный диапазон

Имя файла D:\Various Artists - Український бум - 5.2004(lossless)\Various Artists - Український бум 5.wav

Пиковый уровень 100.0 %
Скорость извлечения 3.3 X
Качество диапазона 100.0 %
CRC теста C57F810A
CRC копии C57F810A
Копирование... OK

Ошибок не произошло

AccurateRip: сводка

Трек 1 отсутствует в базе данных
Трек 2 отсутствует в базе данных
Трек 3 отсутствует в базе данных
Трек 4 отсутствует в базе данных
Трек 5 отсутствует в базе данных
Трек 6 отсутствует в базе данных
Трек 7 отсутствует в базе данных
Трек 8 отсутствует в базе данных
Трек 9 отсутствует в базе данных
Трек 10 отсутствует в базе данных
Трек 11 отсутствует в базе данных
Трек 12 отсутствует в базе данных
Трек 13 отсутствует в базе данных
Трек 14 отсутствует в базе данных
Трек 15 отсутствует в базе данных
Трек 16 отсутствует в базе данных
Трек 17 отсутствует в базе данных
Трек 18 отсутствует в базе данных
Трек 19 отсутствует в базе данных
Трек 20 отсутствует в базе данных

Ни одного трека нет в базе AccurateRip

Конец отчёта
.Cue
REM GENRE pop
REM DATE 2004
REM DISCID 2D125D14
REM COMMENT "ExactAudioCopy v1.0b3"
PERFORMER "Various Artists"
TITLE "Український бум 5"
FILE "Various Artists - Український бум 5.flac" WAVE
TRACK 01 AUDIO
TITLE "Дівчина-весна"
PERFORMER "Н. Бучинська"
FLAGS DCP
INDEX 01 00:00:00
TRACK 02 AUDIO
TITLE "Очі волошкові"
PERFORMER "О. Білозір"
FLAGS DCP
INDEX 01 03:56:07
TRACK 03 AUDIO
TITLE "Нема з ким"
PERFORMER "В. Павлік"
FLAGS DCP
INDEX 01 07:22:34
TRACK 04 AUDIO
TITLE "Де ти тепер"
PERFORMER "О. Малінін"
FLAGS DCP
INDEX 01 11:20:65
TRACK 05 AUDIO
TITLE "Лелеки"
PERFORMER "Н.Королева"
FLAGS DCP
INDEX 01 14:29:42
TRACK 06 AUDIO
TITLE "Серднько"
PERFORMER "Т. Повалій"
FLAGS DCP
INDEX 01 18:23:38
TRACK 07 AUDIO
TITLE "Коло річки-броду"
PERFORMER "І. Попович"
FLAGS DCP
INDEX 01 21:35:27
TRACK 08 AUDIO
TITLE "Монахиня"
PERFORMER "І. Бобул"
FLAGS DCP
INDEX 01 25:05:23
TRACK 09 AUDIO
TITLE "Спасибо за любовь"
PERFORMER "А. Кудлай"
FLAGS DCP
INDEX 01 30:09:21
TRACK 10 AUDIO
TITLE "Шахтерские жені"
PERFORMER "П. Зібров"
FLAGS DCP
INDEX 01 34:17:31
TRACK 11 AUDIO
TITLE "Кохання в сорок років"
PERFORMER "В.Кавун"
FLAGS DCP
INDEX 01 38:36:64
TRACK 12 AUDIO
TITLE "Мені не спиться"
PERFORMER "І. Попович"
FLAGS DCP
INDEX 01 42:08:46
TRACK 13 AUDIO
TITLE "Сопілка"
PERFORMER "А. Ротару"
FLAGS DCP
INDEX 01 45:55:07
TRACK 14 AUDIO
TITLE "Двічі в одну річку не ввійдеш"
PERFORMER "Ю. Бодай"
FLAGS DCP
INDEX 01 49:22:08
TRACK 15 AUDIO
TITLE "Чорні троянди"
PERFORMER "С. Гіга"
FLAGS DCP
INDEX 01 52:27:54
TRACK 16 AUDIO
TITLE "Я не хочу"
PERFORMER "О.Тищенко"
FLAGS DCP
INDEX 01 57:27:41
TRACK 17 AUDIO
TITLE "Біле та чорне"
PERFORMER "В. та Св. Білоножко"
FLAGS DCP
INDEX 01 61:51:46
TRACK 18 AUDIO
TITLE "Чекай"
PERFORMER "С. Ротару"
FLAGS DCP
INDEX 01 65:59:42
TRACK 19 AUDIO
TITLE "Україна"
PERFORMER "Н. Бучинська"
FLAGS DCP
INDEX 01 69:35:71
TRACK 20 AUDIO
TITLE "Все золото світу"
PERFORMER "І. Бобул"
FLAGS DCP
INDEX 01 74:06:69
Тривалість: 1:18:21
Мова: українська, російська (8-10, 12)
Аудіо-кодек: FLAC
Бітрейт: 1024кб/с
Джерело: 40years


Срібний реліз (на рейтинг впливає 50% завантаженого)
 Трекер:    Зареєстрований   

Завантажити / скачати українську музику



відео для новачків



 Зареєстрований:   2014-03-18 13:56
 Розмір:   603 MB 
 Оцінка музики:   10/10 (Голосів: 3)
   
Ваш часовий пояс: GMT + 2 Години

Нова тема   Відповісти