Завантажити та скачати торренти українською


За межами Шервудського лісу / Beyond Sherwood Forest (2009) 1080p Ukr/Eng

Нові коментарі

Нова тема   Відповісти
Останній раз роздавалося urij546724 (2016-07-26)
Автор Повідомлення
urij546724 
Відео Гуртом - фільмокрай
Відео Гуртом - фільмокрай


З нами з: 16.03.10
Востаннє: 04.12.16
Повідомлень: 5222

2014-03-17 20:48  
За межами Шервудського лісу / Beyond Sherwood Forest (2009) 1080p Ukr/Eng

Альтернативний постер:
За межами Шервудського лісу / Beyond Sherwood Forest (2009) 1080p Ukr/Eng


Жанр: екшн, пригодницький, фентезі
Країна: Канада



Кіностудія / кінокомпанія: Syfy, Front Street Pictures, Forest Road Productions
Режисер: Пітер ДеЛуіс (Peter DeLuise)
Актори: Робін Данн (Robin Dunne), Еріка Дюранс (Erica Durance), Джуліан Сендс (Julian Sands), Кетрін Ізабель (Katharine Isabelle), Марк Гіббон (Mark Gibbon), Кайнан Вєб (Cainan Wiebe), Річард де Клерк (Richard de Klerk), Білл Дов (Bill Dow)...

Сюжет:
Легендарний Робін Гуд - лідер стрімко зростаючої армії своїх послідовників у Шервудському лісі. Робін опинився в Шервуді двадцять років тому - після того, як став свідком вбивства свого батька. А тепер злий Шериф Ноттінгемський вирішив розправитися з Робін Гудом і його розбійниками, які ховаються в Шервудському лісі. Щоб знищити своїх ворогів, він спускає з ланцюга монстра, який ночами приймає вигляд дівчини Еліни. Гуд повинен знайти спосіб зцілити Еліну, поки вона знову не обернулася чудовиськом і не вбила його, розбійників і леді Меріан - любов всього життя Робіна.
Media info
General
Unique ID : 238409546671557930002591290396458943617 (0xB35C022CCF7CEDC591AF27D78D110481)
Complete name : E:\HD1\Beyond Sherwood Forest (2009) [ukr.2+2_eng_AC3_5.1] 1080p [Hurtom] by urij546724.mkv
Format : Matroska
Format version : Version 2
File size : 6.85 GiB
Duration : 1h 33mn
Overall bit rate : 10.5 Mbps
Movie name : Beyond Sherwood Forest (2009) [ukr.2+2_eng_AC3_5.1] 1080p [Hurtom] by urij546724
Encoded date : UTC 2014-03-17 17:59:20
Writing application : mkvmerge v2.9.7 ('Tenderness') built on Jul 1 2009 18:43:35
Writing library : libebml v0.7.7 + libmatroska v0.8.1

Video
ID : 1
Format : AVC
Format/Info : Advanced Video Codec
Format profile : [email protected]
Format settings, CABAC : Yes
Format settings, ReFrames : 4 frames
Codec ID : V_MPEG4/ISO/AVC
Duration : 1h 33mn
Bit rate : 9 614 Kbps
Width : 1 920 pixels
Height : 1 080 pixels
Display aspect ratio : 16:9
Frame rate mode : Constant
Frame rate : 23.976 fps
Color space : YUV
Chroma subsampling : 4:2:0
Bit depth : 8 bits
Scan type : Progressive
Bits/(Pixel*Frame) : 0.193
Stream size : 6.13 GiB (89%)
Title : Beyond Sherwood Forest (2009) [ukr.2+2_eng_AC3_5.1] 1080p [Hurtom] by urij546724
Writing library : core 104 r1688 0b36c6d
Encoding settings : cabac=1 / ref=4 / deblock=1:0:0 / analyse=0x3:0x133 / me=umh / subme=7 / psy=1 / psy_rd=1.00:0.00 / mixed_ref=1 / me_range=16 / chroma_me=1 / trellis=1 / 8x8dct=1 / cqm=0 / deadzone=21,11 / fast_pskip=0 / chroma_qp_offset=-2 / threads=4 / sliced_threads=0 / nr=0 / decimate=1 / interlaced=0 / constrained_intra=0 / bframes=3 / b_pyramid=2 / b_adapt=1 / b_bias=0 / direct=1 / weightb=1 / open_gop=0 / weightp=2 / keyint=250 / keyint_min=23 / scenecut=40 / intra_refresh=0 / rc_lookahead=40 / rc=2pass / mbtree=1 / bitrate=9614 / ratetol=1.0 / qcomp=0.60 / qpmin=10 / qpmax=51 / qpstep=4 / cplxblur=20.0 / qblur=0.5 / ip_ratio=1.40 / aq=1:1.00
Language : English
Default : Yes
Forced : No

Audio #1
ID : 2
Format : AC-3
Format/Info : Audio Coding 3
Mode extension : CM (complete main)
Format settings, Endianness : Big
Codec ID : A_AC3
Duration : 1h 33mn
Bit rate mode : Constant
Bit rate : 448 Kbps
Channel count : 6 channels
Channel positions : Front: L C R, Side: L R, LFE
Sampling rate : 48.0 KHz
Bit depth : 16 bits
Compression mode : Lossy
Stream size : 299 MiB (4%)
Title : Українська доріжка
Language : Ukrainian
Default : Yes
Forced : No

Audio #2
ID : 3
Format : AC-3
Format/Info : Audio Coding 3
Mode extension : CM (complete main)
Format settings, Endianness : Big
Codec ID : A_AC3
Duration : 1h 33mn
Bit rate mode : Constant
Bit rate : 448 Kbps
Channel count : 6 channels
Channel positions : Front: L C R, Side: L R, LFE
Sampling rate : 48.0 KHz
Bit depth : 16 bits
Compression mode : Lossy
Stream size : 299 MiB (4%)
Title : Оригінальна доріжка
Language : English
Default : No
Forced : No
Тривалість: 1:33:20
Якість: 1080p
Відео:
кодек:
розмір кадру: 1920 х 1080
бітрейт: ~ 10.3 мб/с
частота кадрів: 23.976 к/с (fps)

Аудіо #1:
мова: українська
переклад: двоголосий закадровий
кодек: 5.1
бітрейт: 448 кб/с
запис звуку з каналу: 2+2

Аудіо #2:
мова: англійська
переклад: оригінал
кодек: 5.1
бітрейт: 448 кб/с

Скріншоти:





Трейлер:
Семпл
Джерело 1_________Джерело 2_________Джерело 3_________Джерело 4_________Джерело 5_________Джерело 6
У випадку, якщо з усіх джерел семпл видалять, прохання повідомити мені у ПРИВАТ


Подяка:

1. Пану urij546724 та Пану karvai0 за запис звуку з ТБ.


Реліз створено:

Особиста оцінка: Ще не дивився.


 Трекер:    Зареєстрований   

Завантажити / скачати фільм українською



відео для новачків



 Зареєстрований:   2014-03-17 20:48
 Розмір:   6.85 GB 
 Оцінка фільму:   5.2/10 (Голосів: 6)
 Прохання залишати коментарі і не тікати з роздачі.
   
Інші релізи
Ваш часовий пояс: GMT + 2 Години

Нова тема   Відповісти