Завантажити та скачати торренти українською


Кімната страху / Panic Room (2002) 720p Ukr/Eng | Sub Eng

Нові коментарі

Нова тема   Відповісти
Автор Повідомлення
aalleexx85 
Відео Гуртом - фільмокрай
Відео Гуртом - фільмокрай


З нами з: 27.07.10
Востаннє: 10.12.16
Повідомлень: 1139

2014-03-15 14:15  
Кімната страху / Panic Room (2002) 720p Ukr/Eng | Sub Eng

Кімната страху / Panic Room (2002) 720p Ukr/Eng | Sub Eng


«It was supposed to be the safest room in the house»

Жанр: кримінальний, трилер, драма
Країна: США



Кінокомпанія: Columbia Pictures Corporation, Hofflund/Polone, Indelible Pictures
Режисер: Дейвід Фінчер
Актори: Джоді Фостер, Дуайт Йокам, Форест Вайтекер, Джаред Лето, Крістен Стюарт.

Сюжет:
Мег Олтмен, яка щойно розлучилася з чоловіком, купує будинок у Вестсайді і переїздить туди разом з дочкою Сарою. Колишній власник будинку створив спеціальну кімнату-бункер, де можна було б сховатися від грабіжників. Ця кімната стає єдиним шансом на порятунок Мег і Сари під час нападу трьох злочинців - Джуніора, Бернема та Рауля...


Тривалість: 01:51:56
Якість:
Відео:
кодек:
розмір кадру: 1280x532
бітрейт: 3935 кб/с

Аудіо # 1:
мова: українська
переклад: багатоголосий закадровий
кодек: 5.1
бітрейт: 384 кб/с

Аудіо # 2:
мова: англійська
переклад: оригінал
кодек: 5.1
бітрейт: 384 кб/с

Джерело озвучення:


Субтитри:
мова: англійська
тип: програмні (м'які)
формат: *.srt
MediaInfo:
General
Unique ID : 201325768888732194547599782060157878550 (0x9775EEC4A35AC748837FED2B9A48C116)
Complete name : G:\Video\Panic Room (2002) 720p [ukr,eng] [Hurtom].mkv
Format : Matroska
Format version : Version 2
File size : 3.75 GiB
Duration : 1h 51mn
Overall bit rate : 4 799 Kbps
Movie name : Panic Room (2002) 720p [ukr,eng] [Hurtom]
Encoded date : UTC 2014-03-14 15:57:16
Writing application : mkvmerge v4.9.1 ('Ich will') зібрано Jul 11 2011 23:53:15
Writing library : libebml v1.2.1 + libmatroska v1.1.1

Video
ID : 1
Format : AVC
Format/Info : Advanced Video Codec
Format profile : [email protected]
Format settings, CABAC : No
Format settings, ReFrames : 2 frames
Codec ID : V_MPEG4/ISO/AVC
Duration : 1h 51mn
Bit rate : 3 935 Kbps
Width : 1 280 pixels
Height : 532 pixels
Display aspect ratio : 2.40:1
Frame rate : 23.976 fps
Color space : YUV
Chroma subsampling : 4:2:0
Bit depth : 8 bits
Scan type : Progressive
Bits/(Pixel*Frame) : 0.241
Stream size : 3.08 GiB (82%)
Title : Panic Room (2002) 720p [ukr,eng] [Hurtom]
Language : English
Default : Yes
Forced : No
Color primaries : BT.709-5, BT.1361, IEC 61966-2-4, SMPTE RP177
Transfer characteristics : BT.709-5, BT.1361
Matrix coefficients : BT.709-5, BT.1361, IEC 61966-2-4 709, SMPTE RP177

Audio #1
ID : 2
Format : AC-3
Format/Info : Audio Coding 3
Mode extension : CM (complete main)
Codec ID : A_AC3
Duration : 1h 51mn
Bit rate mode : Constant
Bit rate : 384 Kbps
Channel(s) : 6 channels
Channel positions : Front: L C R, Side: L R, LFE
Sampling rate : 48.0 KHz
Bit depth : 16 bits
Compression mode : Lossy
Stream size : 307 MiB (8%)
Title : TRK Ukraine
Language : Ukrainian
Default : Yes
Forced : No

Audio #2
ID : 3
Format : AC-3
Format/Info : Audio Coding 3
Mode extension : CM (complete main)
Codec ID : A_AC3
Duration : 1h 51mn
Bit rate mode : Constant
Bit rate : 384 Kbps
Channel(s) : 6 channels
Channel positions : Front: L C R, Side: L R, LFE
Sampling rate : 48.0 KHz
Bit depth : 16 bits
Compression mode : Lossy
Stream size : 307 MiB (8%)
Title : Original
Language : English
Default : No
Forced : No

Text
ID : 4
Format : UTF-8
Codec ID : S_TEXT/UTF8
Codec ID/Info : UTF-8 Plain Text
Language : English
Default : No
Forced : No

Menu
00:00:00.000 : en:1
00:06:34.000 : en:2
00:15:24.000 : en:3
00:20:20.000 : en:4
00:26:53.000 : en:5
00:32:01.000 : en:6
00:42:31.000 : en:7
00:48:04.000 : en:8
00:55:51.000 : en:9
01:04:55.000 : en:10
01:08:27.000 : en:11
01:11:57.000 : en:12
01:17:33.000 : en:13
01:26:42.000 : en:14
01:33:08.000 : en:15
01:42:42.000 : en:16
Скріншоти:



Джерело: &
Особиста оцінка: 10 - без зайвих вагань рекомендую всім!


Срібний реліз (на рейтинг впливає 50% завантаженого)
 Трекер:    Зареєстрований   

Завантажити / скачати фільм українською



відео для новачків



 Зареєстрований:   2014-03-15 14:15
 Розмір:   3.75 GB 
 Оцінка фільму:   9.3/10 (Голосів: 9)
   
Інші релізи
   Кімната страху / Panic Room (2002) Ukr/Eng Givi  2 / 0   2.12 GB   2012-11-25 22:32 
   Кімната страху / Panic Room (2002) AVC Ukr/Eng | Eng Sub imonko  0 / 1   2.4 GB   2011-03-17 16:13 
Jack_Daniels 
VIP


З нами з: 30.07.10
Востаннє: 09.12.16
Повідомлень: 298

2014-03-15 15:33  
Чому релізер не дає шв ? 0кб від релізаера і 30 кб від іншого піра =\
п.с. можливо вимкніть решту роздач = Роздає [ 111 ]

Ваш часовий пояс: GMT + 2 Години

Нова тема   Відповісти