Завантажити та скачати торренти українською


Імаджинерум - Уявосвіт / Imaginaerum (2012) 720p Ukr/Eng | Sub Ukr/Eng

Нові коментарі

Нова тема   Відповісти
Автор Повідомлення
BOOGud 
VIP


З нами з: 06.03.12
Востаннє: 11.11.16
Повідомлень: 907

2014-03-13 22:37  
Імаджинерум - Уявосвіт / Imaginaerum (2012) 720 Ukr/Eng | Sub Ukr/Eng

Імаджинерум - Уявосвіт / Imaginaerum (2012) 720p Ukr/Eng | Sub Ukr/Eng


Жанр: драма, фентезі, мюзикл
Країна: Фінляндія, Канада



Кінокомпанія: Сін Нейшн/Scene Nation, Солар Філмз/Solar Films, Карамел Філм/Caramel Film
Режисер:Стобе Гар'ю
Актори: Маріанн Фарлі, Квінн Лорд, Френсіс-Хав'єр МакКарті, Ілка Віллі, Джоанна Ноєс, Кеянна Філдінґ, Стефані Демерс, Гелен Робітейлл, Туомас Голопайнен, Анетт Ользон, Юкка Невалайнен, Емппу Вуорінен, Марко Гіетала.

Сюжет:
Старий композитор і поет Том, що загубився у світі власної уяви, намагається віднайти шлях до реальності, щоб перед смертю помиритися зі своєю донькою.


Тривалість: 01:25:44
Якість:
Відео:
кодек:
розмір кадру: 1 280 х 544
бітрейт: 6 533 кб/с

Аудіо # 1:
мова: українська
переклад: багатоголосий закадровий
кодек: 2.0
бітрейт: 256 кб/с

Аудіо # 2:
мова: англійська
переклад: оригінал
кодек: 5.1
бітрейт: 768 кб/с

Субтитри:
мова: українська | переклад пісень
тип: програмні (м'які)
формат: *.srt

Субтитри:
мова:англійська
тип: програмні (м'які)
формат: *.srt

MediaInfo


General
Unique ID : 199998676392522799877363857589089718897 (0x9676580E6EA1C3CA899BF75D7B79D271)
Complete name : I:\!!!720p\!2160\Imaginaerum.2012.D..720p.UKR.ENG[3Dots].mkv
Format : Matroska
Format version : Version 4 / Version 2
File size : 4.53 GiB
Duration : 1h 25mn
Overall bit rate : 7 553 Kbps
Encoded date : UTC 2014-03-13 20:38:13
Writing application : mkvmerge v6.8.0 ('Theme for Great Cities') 32bit built on Mar 2 2014 21:27:07
Writing library : libebml v1.3.0 + libmatroska v1.4.1

Video
ID : 1
Format : AVC
Format/Info : Advanced Video Codec
Format profile : [email protected]
Format settings, CABAC : Yes
Format settings, ReFrames : 5 frames
Codec ID : V_MPEG4/ISO/AVC
Duration : 1h 25mn
Bit rate : 6 533 Kbps
Width : 1 280 pixels
Height : 544 pixels
Display aspect ratio : 2.35:1
Frame rate mode : Constant
Frame rate : 23.976 fps
Color space : YUV
Chroma subsampling : 4:2:0
Bit depth : 8 bits
Scan type : Progressive
Bits/(Pixel*Frame) : 0.391
Stream size : 3.82 GiB (84%)
Writing library : core 130 r2273 b3065e6
Encoding settings : cabac=1 / ref=5 / deblock=1:0:0 / analyse=0x3:0x133 / me=umh / subme=7 / psy=1 / psy_rd=1.00:0.00 / mixed_ref=1 / me_range=16 / chroma_me=1 / trellis=1 / 8x8dct=1 / cqm=0 / deadzone=21,11 / fast_pskip=0 / chroma_qp_offset=-2 / threads=6 / lookahead_threads=1 / sliced_threads=0 / nr=0 / decimate=1 / interlaced=0 / bluray_compat=0 / constrained_intra=0 / bframes=3 / b_pyramid=2 / b_adapt=2 / b_bias=0 / direct=3 / weightb=1 / open_gop=0 / weightp=2 / keyint=250 / keyint_min=23 / scenecut=40 / intra_refresh=0 / rc_lookahead=50 / rc=2pass / mbtree=1 / bitrate=6533 / ratetol=1.0 / qcomp=0.60 / qpmin=0 / qpmax=69 / qpstep=4 / cplxblur=20.0 / qblur=0.5 / ip_ratio=1.40 / aq=1:1.00
Language : English
Default : No
Forced : No

Audio #1
ID : 2
Format : AC-3
Format/Info : Audio Coding 3
Mode extension : CM (complete main)
Format settings, Endianness : Big
Codec ID : A_AC3
Duration : 1h 25mn
Bit rate mode : Constant
Bit rate : 256 Kbps
Channel count : 2 channels
Channel positions : Front: L R
Sampling rate : 48.0 KHz
Bit depth : 16 bits
Compression mode : Lossy
Stream size : 157 MiB (3%)
Title : ukr(3dots)
Language : Ukrainian
Default : Yes
Forced : No

Audio #2
ID : 3
Format :
Format/Info : Digital Theater Systems
Mode : 16
Format settings, Endianness : Big
Codec ID : A_DTS
Duration : 1h 25mn
Bit rate mode : Constant
Bit rate : 768 Kbps
Channel count : 6 channels
Channel positions : Front: L C R, Side: L R, LFE
Sampling rate : 48.0 KHz
Bit depth : 24 bits
Compression mode : Lossy
Stream size : 471 MiB (10%)
Title : eng
Language : English
Default : No
Forced : No

Text #1
ID : 4
Format : UTF-8
Codec ID : S_TEXT/UTF8
Codec ID/Info : UTF-8 Plain Text
Title : eng
Language : English
Default : No
Forced : No

Text #2
ID : 5
Format : UTF-8
Codec ID : S_TEXT/UTF8
Codec ID/Info : UTF-8 Plain Text
Title : ukr(himerka)
Language : Ukrainian
Default : Yes
Forced : No
Скріншоти














































































Переклад химерка
Озвучення виконано Товариством "Три Крапки"

Джерело: 3dots.com.ua & rutor.org
Особиста оцінка: 10 - без зайвих вагань рекомендую всім!


Авторський реліз (завантажувати можна без реєстрації)
 Трекер:    Зареєстрований   

Завантажити / скачати фільм українською



відео для новачків



 Зареєстрований:   2014-03-13 23:11
 Розмір:   4.53 GB 
 Оцінка фільму:   9.8/10 (Голосів: 10)
   
bot 
робот


З нами з: 30.09.07
Востаннє: 26.05.05
Повідомлень: 16030

2014-03-13 23:11  
Тему перенесено з Анонси релізів до форуму Фільми в HD


BOOGud

Ваш часовий пояс: GMT + 2 Години

Нова тема   Відповісти