Завантажити та скачати торренти українською


Кілери / Killers (2010) 720р Ukr/Eng | Sub Eng | Line

Нові коментарі

Нова тема   Відповісти
Автор Повідомлення
leroykendall 
Модератор HD


З нами з: 03.01.11
Востаннє: 20.11.16
Повідомлень: 749

2014-03-11 01:26  
Кілери / Killers (2010) 720р Ukr/Eng | Sub Eng | Line
Кілери / Killers (2010) 720р Ukr/Eng | Sub Eng | Line
«Marriage... give it your best shot.»




Жанр: екшн, романтична комедія
Країна: США





Кіностудія / кінокомпанія: Katalyst Films, Lionsgate
Режисер: Роберт Лукетік (Robert Luketic)
Актори: Ештон Катчер (Ashton Kutcher), Кетрін Гейґл (Katherine Heigl), Том Селлек (Tom Selleck), Кетрін О’Гара (Catherine O'Hara), Кевін С’юзман (Kevin Sussman)

Сюжет:
Спенсер був безжальним найманим вбивцею, грозою світового тероризму і перестав ним бути, коли зустрів Джен в ліфті курортного готелю ... Через три роки вони - звичайна ідеальна молода пара, що проживає в американському передмісті. Але їх безхмарному щастю приходить кінець, коли за голову Спенсера оголошують винагороду в $ 20 млн., і всі професіонали-кілери починають за ним полювання. Чи зуміють герої «впізнати» вбивць серед своїх сусідів, колег, знайомих і друзів, щоб вціліти? Чи пробачить Джен чоловіка за «вбивчу правду»? І хто «замовив» Спенсера?


Тривалість: 01:40:23
Якість: 720р
Відео:
кодек:
розмір кадру: 1280 x 544
бітрейт: 4273 кб/с

Аудіо # 1:
мова: українська line від Skiff-a
переклад: професійний дубльований
кодек: 2.0
бітрейт: 384 кб/с

Аудіо # 2:
мова: англійська
переклад: оригінал
кодек: 5.1
бітрейт: 1536 кб/с

Субтитри # 1:
мова: англійська
тип: програмні (м'які)
формат: *.srt

Субтитри # 2:
мова: англійська SDH
тип: програмні (м'які)
формат: *.srt

Джерело озвучення:
LINE


Збережені оригінальні чаптери як на Blu-ray.
MediaInfo

Код:
General
Unique ID                                : 198493927514831060513553657810622790040 (0x95548A35718E3B1DB17162C2352EB998)
Complete name                            : V:\Killers (2010) [Ukr, Eng] 720p [Hurtom, HDClub] by leroykendall.mkv
Format                                   : Matroska
Format version                           : Version 4 / Version 2
File size                                : 4.33 GiB
Duration                                 : 1h 40mn
Overall bit rate                         : 6 169 Kbps
Movie name                               : Killers (2010) [Ukr, Eng] 720p [Hurtom, HDClub] by leroykendall
Encoded date                             : UTC 2014-03-10 21:39:53
Writing application                      : mkvmerge v6.2.0 ('Promised Land') built on Apr 28 2013 12:22:01
Writing library                          : libebml v1.3.0 + libmatroska v1.4.0

Video
ID                                       : 1
Format                                   : AVC
Format/Info                              : Advanced Video Codec
Format profile                           : [email protected]
Format settings, CABAC                   : Yes
Format settings, ReFrames                : 11 frames
Codec ID                                 : V_MPEG4/ISO/AVC
Duration                                 : 1h 40mn
Bit rate                                 : 4 273 Kbps
Width                                    : 1 280 pixels
Height                                   : 544 pixels
Display aspect ratio                     : 2.35:1
Frame rate mode                          : Constant
Frame rate                               : 23.976 fps
Color space                              : YUV
Chroma subsampling                       : 4:2:0
Bit depth                                : 8 bits
Scan type                                : Progressive
Bits/(Pixel*Frame)                       : 0.256
Stream size                              : 2.91 GiB (67%)
Title                                    : Killers (2010) 720p
Writing library                          : core 105 r1724 b02df7b
Encoding settings                        : cabac=1 / ref=11 / deblock=1:-3:-3 / analyse=0x3:0x113 / me=umh / subme=10 / psy=1 / psy_rd=1.00:0.00 / mixed_ref=1 / me_range=32 / chroma_me=1 / trellis=2 / 8x8dct=1 / cqm=0 / deadzone=21,11 / fast_pskip=0 / chroma_qp_offset=-2 / threads=6 / sliced_threads=0 / nr=0 / decimate=0 / interlaced=0 / constrained_intra=0 / bframes=10 / b_pyramid=2 / b_adapt=2 / b_bias=0 / direct=3 / weightb=1 / open_gop=0 / weightp=2 / keyint=250 / keyint_min=23 / scenecut=40 / intra_refresh=0 / rc=2pass / mbtree=0 / bitrate=4273 / ratetol=1.0 / qcomp=0.60 / qpmin=10 / qpmax=51 / qpstep=4 / cplxblur=20.0 / qblur=0.5 / ip_ratio=1.40 / pb_ratio=1.30 / aq=1:0.65
Language                                 : English
Default                                  : Yes
Forced                                   : No

Audio #1
ID                                       : 2
Format                                   : AC-3
Format/Info                              : Audio Coding 3
Mode extension                           : CM (complete main)
Format settings, Endianness              : Big
Codec ID                                 : A_AC3
Duration                                 : 1h 40mn
Bit rate mode                            : Constant
Bit rate                                 : 384 Kbps
Channel count                            : 2 channels
Channel positions                        : Front: L R
Sampling rate                            : 48.0 KHz
Bit depth                                : 16 bits
Compression mode                         : Lossy
Stream size                              : 276 MiB (6%)
Title                                    : 2.0 @ 384 kbps
Language                                 : Ukrainian
Default                                  : Yes
Forced                                   : No

Audio #2
ID                                       : 3
Format                                   :
Format/Info                              : Digital Theater Systems
Mode                                     : 16
Format settings, Endianness              : Big
Codec ID                                 : A_DTS
Duration                                 : 1h 40mn
Bit rate mode                            : Constant
Bit rate                                 : 1 509 Kbps
Channel count                            : 6 channels
Channel positions                        : Front: L C R, Side: L R, LFE
Sampling rate                            : 48.0 KHz
Bit depth                                : 24 bits
Compression mode                         : Lossy
Stream size                              : 1.06 GiB (24%)
Title                                    : 5.1 @ 1536 kbps
Language                                 : English
Default                                  : No
Forced                                   : No

Text #1
ID                                       : 4
Format                                   : UTF-8
Codec ID                                 : S_TEXT/UTF8
Codec ID/Info                            : UTF-8 Plain Text
Language                                 : English
Default                                  : No
Forced                                   : No

Text #2
ID                                       : 5
Format                                   : UTF-8
Codec ID                                 : S_TEXT/UTF8
Codec ID/Info                            : UTF-8 Plain Text
Title                                    : SDH
Language                                 : English
Default                                  : No
Forced                                   : No

Menu
00:00:00.000                             : en:Chapter 1
00:09:51.841                             : en:Chapter 2
00:15:18.334                             : en:Chapter 3
00:22:40.025                             : en:Chapter 4
00:28:52.397                             : en:Chapter 5
00:36:06.122                             : en:Chapter 6
00:44:51.147                             : en:Chapter 7
00:51:27.918                             : en:Chapter 8
00:55:06.220                             : en:Chapter 9
01:01:50.624                             : en:Chapter 10
01:05:07.278                             : en:Chapter 11
01:13:39.123                             : en:Chapter 12
01:17:37.111                             : en:Chapter 13
01:21:38.769                             : en:Chapter 14
01:28:40.023                             : en:Chapter 15
01:31:40.829                             : en:Chapter 16
Скріншоти:





Подяки
За синхронізацію української доріжки Vasua95



Джерело: &


 Трекер:    Зареєстрований   

Завантажити / скачати фільм українською



відео для новачків



 Зареєстрований:   2014-03-11 01:26
 Розмір:   4.33 GB 
 Оцінка фільму:   9.2/10 (Голосів: 13)
   
Інші релізи
   Кілери / Killers (2010) 2xUkr/Eng Arsenfpu  5 / 0   1.87 GB   2015-09-13 19:42 
   Кілери / Killers (2010) Ukr/Eng AngryBirdsUA  1 / 0   2.14 GB   2012-03-07 15:35 
   Кілери / Killers (2010) Skiff  1 / 0   1.32 GB   2010-07-10 00:06 
casper101 
Свій


З нами з: 03.12.09
Востаннє: 08.12.16
Повідомлень: 93

2016-02-14 20:26  
чому коли оновлюється роздача потрібно щераз його скачувати, і щей враховується завантаження ????
Ваш часовий пояс: GMT + 2 Години

Нова тема   Відповісти