Завантажити та скачати торренти українською


Американська афера / American Hustle (2013) 720p Ukr/Eng | sub Eng

Нові коментарі

Нова тема   Відповісти
Автор Повідомлення
Omikron 
VIP


З нами з: 03.01.12
Востаннє: 30.11.16
Повідомлень: 297

2014-03-08 01:48  
Американська афера / American Hustle (2013) 720p Ukr/Eng | sub Eng



Жанр: кримінальний, драма
Країна: США



Кінокомпанія: Atlas Entertainment, Annapurna Pictures
Режисер: Девід Расселл
Актори: Крістіан Бейл, Бредлі Купер, Емі Адамс, Джеремі Реннер, Дженніфер Лоуренс

Сюжет:
Агент ФБР Річі ДіМасо змушує шахраїв Ірвінґа Розенфельда і Сідні Проссер працювати на уряд. Схиблений агент придумав схему, за якою шахраї повинні потрапити у політичний бомонд Нью-Джерсі і викрити корумпованих політиків.


Українською мовою озвучено студією Омікрон на замовлення HURTOM.COM
У прокаті фільм демонструватиметься виключно російською мовою (прокатник Top Film Distribution)!


Тривалість: 02:18:04
Якість:
Відео:
кодек:
розмір кадру: 1280x532
бітрейт: 3313 кб/с
CRF: 19

Аудіо # 1:
мова: українська | Омікрон
переклад: багатоголосий закадровий
кодек: 5.1
бітрейт: 448 кб/с

Аудіо # 2:
мова: англійська
переклад: оригінал
кодек: 5.1
бітрейт: 448 кб/с

Субтитри:
мова: англійська
тип: програмні (м'які)
формат: *.srt

звіт MediaInfo
General
Unique ID : 252779964146884602415880339385485665398 (0xBE2BA6756B18610FB5E7B11EE504A476)
Complete name : American Hustle (2013) [ukr,eng] 720p [Hurtom].mkv
Format : Matroska
Format version : Version 4 / Version 2
File size : 4.14 GiB
Duration : 2h 18mn
Overall bit rate : 4 295 Kbps
Movie name : Американська афера / American Hustle (2013) [Hurtom]
Encoded date : UTC 2014-03-07 23:36:35
Writing application : mkvmerge v6.5.0 ('Isn't she lovely') built on Oct 20 2013 12:50:05
Writing library : libebml v1.3.0 + libmatroska v1.4.1

Video
ID : 1
Format : AVC
Format/Info : Advanced Video Codec
Format profile : [email protected]
Format settings, CABAC : Yes
Format settings, ReFrames : 8 frames
Codec ID : V_MPEG4/ISO/AVC
Duration : 2h 18mn
Bit rate : 3 313 Kbps
Width : 1 280 pixels
Height : 532 pixels
Display aspect ratio : 2.40:1
Frame rate mode : Constant
Frame rate : 23.976 fps
Color space : YUV
Chroma subsampling : 4:2:0
Bit depth : 8 bits
Scan type : Progressive
Bits/(Pixel*Frame) : 0.203
Stream size : 3.20 GiB (77%)
Writing library : core 138 r2358 9e941d1
Encoding settings : cabac=1 / ref=8 / deblock=1:-1:-1 / analyse=0x3:0x133 / me=umh / subme=10 / psy=1 / psy_rd=1.00:0.15 / mixed_ref=1 / me_range=32 / chroma_me=1 / trellis=2 / 8x8dct=1 / cqm=0 / deadzone=21,11 / fast_pskip=0 / chroma_qp_offset=-3 / threads=12 / lookahead_threads=1 / sliced_threads=0 / nr=0 / decimate=1 / interlaced=0 / bluray_compat=0 / constrained_intra=0 / bframes=3 / b_pyramid=2 / b_adapt=2 / b_bias=0 / direct=3 / weightb=1 / open_gop=0 / weightp=2 / keyint=240 / keyint_min=23 / scenecut=40 / intra_refresh=0 / rc_lookahead=60 / rc=crf / mbtree=1 / crf=19.0 / qcomp=0.60 / qpmin=0 / qpmax=69 / qpstep=4 / vbv_maxrate=31250 / vbv_bufsize=31250 / crf_max=0.0 / nal_hrd=none / ip_ratio=1.40 / aq=1:1.00
Default : Yes
Forced : No

Audio #1
ID : 2
Format : AC-3
Format/Info : Audio Coding 3
Mode extension : CM (complete main)
Format settings, Endianness : Big
Codec ID : A_AC3
Duration : 2h 18mn
Bit rate mode : Constant
Bit rate : 448 Kbps
Channel(s) : 6 channels
Channel positions : Front: L C R, Side: L R, LFE
Sampling rate : 48.0 KHz
Bit depth : 16 bits
Compression mode : Lossy
Stream size : 442 MiB (10%)
Title : Озвучено студією Омікрон на замовлення hurtom.com
Language : Ukrainian
Default : Yes
Forced : No

Audio #2
ID : 3
Format : AC-3
Format/Info : Audio Coding 3
Mode extension : CM (complete main)
Format settings, Endianness : Big
Codec ID : A_AC3
Duration : 2h 18mn
Bit rate mode : Constant
Bit rate : 448 Kbps
Channel(s) : 6 channels
Channel positions : Front: L C R, Side: L R, LFE
Sampling rate : 48.0 KHz
Bit depth : 16 bits
Compression mode : Lossy
Stream size : 442 MiB (10%)
Title : Original
Language : English
Default : No
Forced : No

Text
ID : 4
Format : UTF-8
Codec ID : S_TEXT/UTF8
Codec ID/Info : UTF-8 Plain Text
Title : Original
Language : English
Default : No
Forced : No
log

[info]: frame I:1559 Avg QP:16.87 size:109045
[info]: frame P:53958 Avg QP:20.19 size: 31949
[info]: frame B:143108 Avg QP:22.12 size: 11343
[info]: consecutive B-frames: 1.3% 3.6% 13.3% 81.8%
[info]: mb I I16..4: 9.8% 73.6% 16.6%
[info]: mb P I16..4: 0.6% 6.8% 1.1% P16..4: 45.4% 23.5% 15.6% 0.4% 0.1% skip: 6.3%
[info]: mb B I16..4: 0.0% 0.8% 0.1% B16..8: 51.2% 9.8% 2.3% direct: 4.6% skip:31.1% L0:43.4% L1:49.8% BI: 6.8%
[info]: 8x8 transform intra:79.6% inter:66.4%
[info]: direct mvs spatial:100.0% temporal:0.0%
[info]: coded y,uvDC,uvAC intra: 89.2% 84.4% 61.1% inter: 30.1% 23.9% 6.3%
[info]: i16 v,h,dc,p: 28% 14% 20% 37%
[info]: i8 v,h,dc,ddl,ddr,vr,hd,vl,hu: 15% 7% 8% 9% 13% 13% 12% 11% 11%
[info]: i4 v,h,dc,ddl,ddr,vr,hd,vl,hu: 35% 7% 4% 7% 11% 11% 9% 9% 8%
[info]: i8c dc,h,v,p: 40% 20% 22% 19%
[info]: Weighted P-Frames: Y:2.9% UV:1.1%
[info]: ref P L0: 44.6% 12.1% 20.0% 6.8% 6.0% 4.1% 4.0% 2.2% 0.3% 0.0%
[info]: ref B L0: 73.7% 12.3% 6.4% 3.2% 2.3% 1.5% 0.6%
[info]: ref B L1: 93.6% 6.4%
[info]: kb/s:3396.49
Про озвучення

Українське озвучення створено в рамках проекту "Хочеш кіно українською? Замовляй!"



Дякуємо користувачам, що фінансово допомогли проекту:
5E_koleco, akon111, andnic, ArPoHoM, artem0211, Askold25, asu, Aussie, AVBHS, awesome555, bamby, BMK12, bmordyuk, Bucci, buddilnik, chaliy, chystovod, demeros, denskipper, detonator1980, Dim-ON, Dim-ON, dmav, don pedro, Explosive Guy, Fizia, freddycryger, FukashiMoari Takaru, gepard, Golota, gudtar, Gxost, havryk, igor911, ihor72, ilitbr, iro4ka_skin, jaguar_arx, jandrus, JarNorega, K2, kartu3y, kino., kipchak, Klen-Yavir, knedlyk, kvitrolik, lemkovladek, lerk, leroykendall, Lounge, lozolk, Maters, Mishandle, MisterR, Mitrukhin, myblackcoffin, NemoInFire, nemos, Nolex, OLgak58, ovinix, panama58, patriot2305, pekodin, petrokhm, piter7pen, POLYAKdim, Pustelnyk, reloady, Roma.23, Romanvolja, Romczyk, Rost3, RST, Saintv, Sehrg, Sehrg-Gut, Sehrg-Gut, Sensetivity, Sepoolka, shakhtar3000, shtein, SirPent, Snuryus, softmaxsg, spalabutyi, tarpyt, The_Marlboro, The_Marlboro, Tjeri, urshula, V.mospanko, vasylmudryk, vdima82, vecchio, veto, vifilo, vifilo, Violator, virtus8hur, volodymyrprua, webschik, Wivern, xfsthe, yarik_ratnik, Yelovbasted, yra1908, zaika, zaika, Володимир, Даша, Завзята, М_а_м_а_Й, павлотесляк, Руслана Костур, Толя, чекірда, deepfree, gavr, romashka

Детальніше про проект.


Джерело:
За українізацію постеру подяка Gelios.


Авторський реліз (завантажувати можна без реєстрації)
 Трекер:    Зареєстрований   

Завантажити / скачати фільм українською



відео для новачків



 Зареєстрований:   2014-03-08 02:02
 Розмір:   4.14 GB 
 Оцінка фільму:   9.3/10 (Голосів: 59)
   
maxbig 
Частий відвідувач


З нами з: 19.01.11
Востаннє: 02.12.16
Повідомлень: 26

2014-03-08 02:39  
Вельми дякую за надзвичайно якісний реліз та чудовий, цікавий і шедевральний, з точки зору акторського складу, фільм Wink (1)
Хіба що не вистачає Моргана Фрімена і Майкла Кейна Wide grin

ninenine 
Відео Гуртом - фільмокрай
Відео Гуртом - фільмокрай


З нами з: 23.10.09
Востаннє: 04.12.16
Повідомлень: 1147

2014-03-08 14:35  
Одні крайності, ріпи на 720р стають все меншими а ріпи 1080р все більшими, 4 гіга - 720р і 20 гіг - 1080р. Sad (2)
seroga13 
VIP


З нами з: 22.06.09
Востаннє: 05.12.16
Повідомлень: 257

2014-03-08 15:48  
Дякую,давно чекав!!!
fruttis 
Новенький


З нами з: 08.03.14
Востаннє: 02.12.16
Повідомлень: 2

2014-03-09 22:52  
Американський лохотрон
Andriy26 
Новенький


З нами з: 20.11.09
Востаннє: 11.08.16
Повідомлень: 3

2014-03-21 19:12  
Як відкрить цей формат mkv
NeetScrool 
Відео Гуртом - фільмокрай
Відео Гуртом - фільмокрай


З нами з: 10.01.13
Востаннє: 04.12.16
Повідомлень: 2212

2014-03-21 19:16  
Andriy26 написано:
Як відкрить цей формат mkv

http://toloka.to/t31566

waldi-hurtom 
VIP


З нами з: 07.10.12
Востаннє: 03.12.16
Повідомлень: 611

2014-03-26 13:36  
Не пн'яв! Навіть не зміг до кінця додивитись - таке занудство. 4/10
Siegfried 
Свій


З нами з: 01.11.11
Востаннє: 04.12.16
Повідомлень: 84

2014-06-14 14:46  
Фільм переоцінений і перехвалений.
Крім акторського складу йому нічим зацікавити.

ladzyo 
Частий відвідувач


З нами з: 09.06.10
Востаннє: 25.10.16
Повідомлень: 30

2014-12-15 14:57  
Ну такий собі ...на худий кінець і таке подивитись можна. Хоча про афери фільми я дуже люблю.
alex_cross 
Новенький


З нами з: 16.07.10
Востаннє: 26.11.16
Повідомлень: 13

2014-12-19 01:11  
Нормальний, хоча і нетиповий Голівуд. Контрастує з типовим, у якому з перших хвилин відомо хто є герой, і протягом всього перегляду симпатії та вболівання глядача лише підсилюються доволі передбачуваним сюжетом. У цій же ж стрічці доводиться постійно переглядати свою прихильність до всіх персонажів, що мають складні характери, і переоцінвати свої погляди на їх моральні якості. Це особливо підсилюєтся гарною акторською грою, особливо у виконанні Бейла.

Багато гарної доречної музики. Особливо сподобалась композиця "Long Black Road" by Jeff Lynne.

Резюме: рейтингу відповідає; хороша акторська гра; не на всі смаки (не для сімейного перегляду); приємний і неочікуваний майже хепі-енд; багато різного і якісного музичного супроводу; може бути цікаво переглянути вдруге через декілька років.

boroznaya 
VIP


З нами з: 02.11.12
Востаннє: 04.12.16
Повідомлень: 1868

2015-05-17 19:55  
Крістіан Бейл знявся у цьому трешаку напевне з відчаю, після відмови ним зніматись в Бетмені. Фільм такий нудний, що й не знаю з чого почати: суцільне безгляздя....
Ваш часовий пояс: GMT + 2 Години

Нова тема   Відповісти