Завантажити та скачати торренти українською


Мрійники / The Dreamers (2003) 720p Ukr/Eng | Sub Eng

Нові коментарі

Нова тема   Відповісти
Автор Повідомлення
xfsthe 
Оцифрування книг Гуртом
Оцифрування книг Гуртом


З нами з: 13.02.11
Востаннє: 04.12.16
Повідомлень: 279

2014-03-03 00:15  
Мрійники / The Dreamers (2003) 720p Ukr/Eng | Sub Eng

Мрійники / The Dreamers (2003) 720p Ukr/Eng | Sub Eng


Жанр: драма, романтичний, еротика
Країна: Великобританія, Франція, Італія



Кінокомпанія: Recorded Picture Company, Peninsula Films, Fiction Films
Режисер: Бернардо Бертолуччі / Bernardo Bertolucci
Актори: Майкл Пітт / Michael Pitt, Єва Ґрін / Eva Green, Луї Ґарель / Louis Garrel, Анна Ченселлор /Anna Chancellor, Робін Ренуччі / Robin Renucci, Жан-П'єр Кальфон / Jean-Pierre Kalfon, Флоріян Кадю / Florian Cadiou, Пєр Ганчіссе / Pierre Hancisse, Валентін Мерлет / Valentin Merlet

Вікові обмеження: NC-17 (18+)

Сюжет:
Хлопець зі звичайної інтелігентної родини, відправляється в Париж, щоб покращити свою французьку. Захоплюючись і вивчаючи кіно, він знайомиться з двома бунтарями Тео і Ізабель, які є братом і сестрою. Вони посвячують його у своє життя і він розуміє що потрапив до мрійників, але їхня мрія в результаті не настільки виявляється близька до його ...


Тривалість: 01:49:43
Якість: 720p
Відео:
кодек:
розмір кадру: 1280 х 716
бітрейт: 6 748 кб/с

Аудіо # 1:
мова: українська
переклад: двоголосий закадровий
кодек: 2.0
бітрейт: 192 кб/с

Аудіо # 2:
мова: англійська
переклад: оригінал
кодек: 5.1
бітрейт: 1510 кб/с

Субтитри:
мова: англійська
тип: програмні (м'які)
формат: *.srt
MediaInfo
General
Unique ID : 28004287606545195696944334799163672350 (0x15116DFABDED375BBFDE6B3D79F0C71E)
Complete name : /media/xfsthe/media/Мрійники/The Dreamers (2003) [ukr,eng] sub[eng] 720p.mkv
Format : Matroska
Format version : Version 4 / Version 2
File size : 6.61 GiB
Duration : 1h 49mn
Overall bit rate : 8 620 Kbps
Movie name : Мрійники / The Dreamers (2003) 720p
Encoded date : UTC 2014-02-27 22:41:10
Writing application : mkvmerge v6.3.0 ('You can't stop me!') built on Jun 29 2013 11:48:33
Writing library : libebml v1.3.0 + libmatroska v1.4.0

Video
ID : 1
Format : AVC
Format/Info : Advanced Video Codec
Format profile : [email protected]
Format settings, CABAC : Yes
Format settings, ReFrames : 8 frames
Codec ID : V_MPEG4/ISO/AVC
Duration : 1h 49mn
Bit rate : 6 748 Kbps
Width : 1 280 pixels
Height : 716 pixels
Display aspect ratio : 16:9
Frame rate mode : Constant
Frame rate : 25.000 fps
Color space : YUV
Chroma subsampling : 4:2:0
Bit depth : 8 bits
Scan type : Progressive
Bits/(Pixel*Frame) : 0.295
Stream size : 5.17 GiB (78%)
Title : 1280x716, 6723 kbps, 25 fps
Writing library : core 115 r1995 c1e60b9
Encoding settings : cabac=1 / ref=8 / deblock=1:-3:-3 / analyse=0x3:0x133 / me=esa / subme=9 / psy=1 / psy_rd=1.03:0.05 / mixed_ref=1 / me_range=64 / chroma_me=1 / trellis=2 / 8x8dct=1 / cqm=0 / deadzone=21,11 / fast_pskip=0 / chroma_qp_offset=-3 / threads=12 / sliced_threads=0 / nr=0 / decimate=1 / interlaced=0 / bluray_compat=0 / constrained_intra=0 / bframes=9 / b_pyramid=2 / b_adapt=2 / b_bias=0 / direct=3 / weightb=1 / open_gop=0 / weightp=2 / keyint=250 / keyint_min=25 / scenecut=40 / intra_refresh=0 / rc_lookahead=60 / rc=crf / mbtree=1 / crf=18.0 / qcomp=0.65 / qpmin=0 / qpmax=69 / qpstep=4 / vbv_maxrate=50000 / vbv_bufsize=62500 / crf_max=0.0 / nal_hrd=none / ip_ratio=1.40 / aq=1:0.85
Language : English
Default : Yes
Forced : No
Matrix coefficients : BT.709

Audio #1
ID : 2
Format : AC-3
Format/Info : Audio Coding 3
Mode extension : CM (complete main)
Format settings, Endianness : Big
Codec ID : A_AC3
Duration : 1h 49mn
Bit rate mode : Constant
Bit rate : 192 Kbps
Channel count : 2 channels
Channel positions : Front: L R
Sampling rate : 48.0 KHz
Bit depth : 16 bits
Compression mode : Lossy
Stream size : 151 MiB (2%)
Title : 2.0 @ 192 kbps | TBi
Language : Ukrainian
Default : Yes
Forced : No

Audio #2
ID : 3
Format :
Format/Info : Digital Theater Systems
Mode : 16
Format settings, Endianness : Big
Codec ID : A_DTS
Duration : 1h 49mn
Bit rate mode : Constant
Bit rate : 1 509 Kbps
Channel count : 6 channels
Channel positions : Front: L C R, Side: L R, LFE
Sampling rate : 48.0 KHz
Bit depth : 16 bits
Compression mode : Lossy
Stream size : 1.16 GiB (18%)
Title : 5.1 @ 1510 kbps
Language : English
Default : No
Forced : No

Text
ID : 4
Format : UTF-8
Codec ID : S_TEXT/UTF8
Codec ID/Info : UTF-8 Plain Text
Language : English
Default : No
Forced : No

Menu
00:00:00.000 : en:1
00:09:55.280 : en:2
00:19:49.880 : en:3
00:28:57.080 : en:4
00:40:02.480 : en:5
00:49:52.280 : en:6
01:00:01.880 : en:7
01:07:00.080 : en:8
01:14:35.480 : en:9
01:27:31.880 : en:10
01:33:03.080 : en:11
01:40:49.880 : en:12
Скріншоти





Подяки:
панам MAKAPOHHIK, POMEO за сирий звук.
пану karvai0 за зведення.


Джерело: &
Особиста оцінка: 10 - без зайвих вагань рекомендую всім!


Срібний реліз (на рейтинг впливає 50% завантаженого)
 Трекер:    Зареєстрований   

Завантажити / скачати фільм українською



відео для новачків



 Зареєстрований:   2014-03-03 00:15
 Розмір:   6.61 GB 
 Оцінка фільму:   10/10 (Голосів: 5)
   
Інші релізи
   Мрійники / The Dreamers (2003) Ukr/Eng | Sub Eng karvai0  3 / 1   1.74 GB   2013-09-12 23:31 
Ваш часовий пояс: GMT + 2 Години

Нова тема   Відповісти