Завантажити та скачати торренти українською


Дуель / Duel (1971) 720p Ukr/Eng | Sub Ukr/Eng

Нові коментарі

Нова тема   Відповісти
Автор Повідомлення
andrew_crasher 
Свій


З нами з: 31.01.12
Востаннє: 11.11.16
Повідомлень: 55

2014-03-01 20:58  
Дуель / Duel (1971) 720p Ukr/Eng | Sub Ukr/Eng

Дуель / Duel (1971) 720p Ukr/Eng | Sub Ukr/Eng


Жанр: трилер
Країна: США



Кінокомпанія: Universal
Режисер: Стівен Спілберґ
Актори: Деніс Вівер, Жаклін Скот, Едді Файрстон

Сюжет:
Під час подорожі по пустельній безлюдній дорозі бізнесмен Девід Мен з Каліфорнії повільно обганяє старого бензовоза. Водій-псих вантажівки відчуває себе ображеним і переслідує Девіда по шосе, намагаючись вбити його.


Тривалість: 01:29:09
Якість:
Відео:
кодек:
розмір кадру: 960 х 720
бітрейт: 6635 кб/с

Аудіо # 1:
мова: українська
переклад: двоголосий закадровий
кодек: 5.1
бітрейт: 384 кб/с

Аудіо # 2:
мова: англійська
переклад: оригінал
кодек: 5.1
бітрейт: 384 кб/с

Джерело озвучення:
любительське озвучення

Субтитри:
мова: українська
тип: програмні (м'які)
формат: *.srt

Субтитри:
мова: англійська
тип: програмні (м'які)
формат: *.srt

Семпл
MediaInfo

General
Unique ID : 201725019916222238147722055150191603187 (0x97C2D35D11C46B1CB392A7B7F4956DF3)
Complete name : C:\Users\Андрiй\Desktop\Дуель (1971).mkv
Format : Matroska
Format version : Version 4 / Version 2
File size : 4.61 GiB
Duration : 1h 29mn
Overall bit rate : 7 404 Kbps
Movie name : Duel (1971) - Andrew Crasher
Encoded date : UTC 2014-03-01 06:29:55
Writing application : mkvmerge v6.0.0 ('Coming Up For Air') built on Jan 20 2013 09:52:00
Writing library : libebml v1.3.0 + libmatroska v1.4.0

Video
ID : 1
Format : AVC
Format/Info : Advanced Video Codec
Format profile : [email protected]
Format settings, CABAC : Yes
Format settings, ReFrames : 6 frames
Format settings, GOP : N=1
Codec ID : V_MPEG4/ISO/AVC
Duration : 1h 29mn
Bit rate : 6 635 Kbps
Width : 960 pixels
Height : 720 pixels
Display aspect ratio : 4:3
Frame rate : 23.976 fps
Color space : YUV
Chroma subsampling : 4:2:0
Bit depth : 8 bits
Scan type : Progressive
Bits/(Pixel*Frame) : 0.400
Stream size : 4.04 GiB (88%)
Title : Andrew Crasher
Writing library : core 58 svn-736M
Encoding settings : cabac=1 / ref=6 / deblock=1:0:0 / analyse=0x3:0x113 / me=umh / subme=6 / me-prepass=1 / brdo=1 / mixed_ref=1 / me_range=24 / chroma_me=1 / trellis=0 / 8x8dct=1 / cqm=2 / deadzone=6,4 / chroma_qp_offset=0 / threads=3 / nr=0 / decimate=0 / mbaff=0 / bframes=16 / b_pyramid=1 / b_adapt=1 / b_bias=0 / direct=3 / wpredb=1 / bime=1 / keyint=250 / keyint_min=25 / scenecut=40(pre) / rc=2pass / bitrate=6635 / ratetol=1.0 / rceq='blurCplx^(1-qComp)' / qcomp=1.00 / qpmin=10 / qpmax=51 / qpstep=4 / cplxblur=20.0 / qblur=0.5 / ip_ratio=1.40 / pb_ratio=1.30 / aq=1:0.5:13.0
Language : English
Default : Yes
Forced : No

Audio #1
ID : 2
Format : AC-3
Format/Info : Audio Coding 3
Mode extension : CM (complete main)
Codec ID : A_AC3
Duration : 1h 29mn
Bit rate mode : Constant
Bit rate : 384 Kbps
Channel(s) : 6 channels
Channel positions : Front: L C R, Side: L R, LFE
Sampling rate : 48.0 KHz
Bit depth : 16 bits
Compression mode : Lossy
Stream size : 245 MiB (5%)
Title : Ukrainian 5.1
Default : Yes
Forced : No

Audio #2
ID : 3
Format : AC-3
Format/Info : Audio Coding 3
Mode extension : CM (complete main)
Codec ID : A_AC3
Duration : 1h 29mn
Bit rate mode : Constant
Bit rate : 384 Kbps
Channel(s) : 6 channels
Channel positions : Front: L C R, Side: L R, LFE
Sampling rate : 48.0 KHz
Bit depth : 16 bits
Compression mode : Lossy
Stream size : 245 MiB (5%)
Title : English 5.1
Language : English
Default : No
Forced : No

Text #1
ID : 4
Format : UTF-8
Codec ID : S_TEXT/UTF8
Codec ID/Info : UTF-8 Plain Text
Title : Ukrainian
Language : Ukrainian
Default : Yes
Forced : No

Text #2
ID : 5
Format : UTF-8
Codec ID : S_TEXT/UTF8
Codec ID/Info : UTF-8 Plain Text
Title : English
Language : English
Default : No
Forced : No
Скріншоти







Джерело: &
Особиста оцінка: 8 - мені сподобалося


Авторський реліз (завантажувати можна без реєстрації)
 Трекер:    Зареєстрований   

Завантажити / скачати фільм українською



відео для новачків



 Зареєстрований:   2014-03-01 21:02
 Розмір:   4.61 GB 
 Оцінка фільму:   9/10 (Голосів: 11)
   
bot 
робот


З нами з: 30.09.07
Востаннє: 26.05.05
Повідомлень: 16052

2014-03-01 21:37  
Тему перенесено з Фільми до форуму Фільми в HD


patriot2305

patriot2305 
Почесний гуртомівець


З нами з: 23.04.11
Востаннє: 11.12.16
Повідомлень: 4145

2014-03-01 21:47  
andrew_crasher написано:
тип: вбудовані (жорсткі)

Взагалі-то програмні м'які

Додано через 1 хвилину 6 секунд:

andrew_crasher написано:
Джерело озвучення:

Це любительське озвучення?

waldi-hurtom 
VIP


З нами з: 07.10.12
Востаннє: 10.12.16
Повідомлень: 613

2014-03-07 22:53  
На рідкість тупий фільм. Дуже слабкий переклад. Вражений оцінкою 7.7. Моя оцінка - 1 з 10.
andrew_crasher 
Свій


З нами з: 31.01.12
Востаннє: 11.11.16
Повідомлень: 55

2014-03-08 05:56  
Цитата:
На рідкість тупий фільм. Дуже слабкий переклад. Вражений оцінкою 7.7. Моя оцінка - 1 з 10.

Це один з перших фільмів Спілберга + любительський переклад. Не всі починають із шедеврів.

Tanat13 
Відео Гуртом - запис з ТБ
Відео Гуртом - запис з ТБ


З нами з: 21.03.08
Востаннє: 11.12.16
Повідомлень: 781

2014-06-22 07:57  
Фільм класний! Існує український переклад оригінального оповідання Річарда Метесона.
Раджу почитати одне з його оповіданнь:
Метесон Р. Кнопка, кнопка (1970) [DOC, DJVU]

Stariy Bars 
Новенький


З нами з: 14.10.14
Востаннє: 10.12.16
Повідомлень: 10

2015-09-25 19:17  
Хороше кіно. А як для телевізійного фільму знятого за 13 днів, то це просто чудове кіно. Прародитель таких стрічок як Джиперс Кріперс, Нічого собі поїздочка та Автомобіль (думаю "Крістіну" теж можна включити до цього списку).
Ваш часовий пояс: GMT + 2 Години

Нова тема   Відповісти