Завантажити та скачати торренти українською


Місто злодіїв / The Town (Theatralic Cut) (2010) 720p Ukr/Eng | Eng sub

Нові коментарі

Нова тема   Відповісти
Автор Повідомлення
ostipko 
Відео Гуртом - підтримка та поширення
Відео Гуртом - підтримка та поширення


З нами з: 23.02.12
Востаннє: 17.11.16
Повідомлень: 620

2014-02-28 09:22  
Місто злодіїв / The Town (Theatralic Cut) (2010) 720p Ukr/Eng | Eng sub




Жанр: драма, кримінальний, трилер, бойовик
Країна: США



Кінокомпанія: Warner Bros. Pictures
Режисер: Бен Аффлек
Актори: Бен Аффлек, Ребекка Холл, Джон Хемм, Джеремі Реннер, Блейк Лайвлі, Оуен Бурк, Тітус Уеллівер, Піт Постлетуейт, Кріс Купер

Сюжет:
Професійний злодій Даг закохується у Клер - робітницю банку, яка переживає не найкращі часи. Дівчина нічого не знає про злочинне життя Дага, зате про неї здогадується детектив, чиє розслідування може поставити хрест на відносинах Дага і Клер.


Тривалість: 02:04:44
Якість:
Відео:
кодек: MPEG4
розмір кадру: 1 280 х 534
бітрейт: 4 667 кб/с

Аудіо # 1:
мова: українська
переклад: багатоголосий закадровий
кодек: 2.0
бітрейт: 128 кб/с

Аудіо # 2:
мова: англійська
переклад: оригінал
кодек: 5.1
бітрейт: 1 509 кб/с

Джерело озвучення:


Субтитри:
мова: англійська
тип: програмні (м'які)
формат: *.ass
MediaInfo
General
Unique ID : 247380434640824033513922237646471763898 (0xBA1BBD19ACF70D0185331E4FAE7517BA)
Complete name : D:\The Town [Theatralic Cut] (2010) 720p [Ukr, Eng].mkv
Format : Matroska
Format version : Version 2
File size : 5.49 GiB
Duration : 2h 4mn
Overall bit rate : 6 305 Kbps
Encoded date : UTC 2014-02-23 11:19:06
Writing application : mkvmerge v4.9.1 ('Ich will') зібрано Jul 11 2011 23:53:15
Writing library : libebml v1.2.1 + libmatroska v1.1.1

Video
ID : 1
Format : AVC
Format/Info : Advanced Video Codec
Format profile : [email protected]
Format settings, CABAC : Yes
Format settings, ReFrames : 11 frames
Codec ID : V_MPEG4/ISO/AVC
Duration : 2h 4mn
Bit rate : 4 667 Kbps
Width : 1 280 pixels
Height : 534 pixels
Display aspect ratio : 2.40:1
Frame rate mode : Constant
Frame rate : 23.976 fps
Color space : YUV
Chroma subsampling : 4:2:0
Bit depth : 8 bits
Scan type : Progressive
Bits/(Pixel*Frame) : 0.285
Stream size : 3.96 GiB (72%)
Writing library : core 110 r1820 fdcf2ae
Encoding settings : cabac=1 / ref=11 / deblock=1:-3:-3 / analyse=0x3:0x133 / me=umh / subme=10 / psy=1 / psy_rd=0.90:0.00 / mixed_ref=1 / me_range=32 / chroma_me=1 / trellis=2 / 8x8dct=1 / cqm=0 / deadzone=21,11 / fast_pskip=1 / chroma_qp_offset=-2 / threads=6 / sliced_threads=0 / nr=0 / decimate=1 / interlaced=0 / constrained_intra=0 / bframes=6 / b_pyramid=2 / b_adapt=2 / b_bias=0 / direct=3 / weightb=1 / open_gop=0 / weightp=2 / keyint=250 / keyint_min=23 / scenecut=40 / intra_refresh=0 / rc_lookahead=40 / rc=2pass / mbtree=1 / bitrate=4667 / ratetol=1.0 / qcomp=0.60 / qpmin=0 / qpmax=51 / qpstep=4 / cplxblur=20.0 / qblur=0.5 / ip_ratio=1.40 / aq=1:1.00
Language : English
Default : No
Forced : No

Audio #1
ID : 2
Format : AC-3
Format/Info : Audio Coding 3
Mode extension : CM (complete main)
Format settings, Endianness : Big
Codec ID : A_AC3
Duration : 2h 4mn
Bit rate mode : Constant
Bit rate : 128 Kbps
Channel(s) : 2 channels
Channel positions : Front: L R
Sampling rate : 48.0 KHz
Bit depth : 16 bits
Compression mode : Lossy
Stream size : 114 MiB (2%)
Title : Так Треба Продакшн
Language : Ukrainian
Default : Yes
Forced : No

Audio #2
ID : 3
Format :
Format/Info : Digital Theater Systems
Mode : 16
Format settings, Endianness : Big
Codec ID : A_DTS
Duration : 2h 4mn
Bit rate mode : Constant
Bit rate : 1 509 Kbps
Channel(s) : 6 channels
Channel positions : Front: L C R, Side: L R, LFE
Sampling rate : 48.0 KHz
Bit depth : 24 bits
Compression mode : Lossy
Stream size : 1.31 GiB (24%)
Title : English @ 5.1 @ 1510 kbps
Language : English
Default : No
Forced : No

Text
ID : 4
Format : ASS
Codec ID : S_TEXT/ASS
Codec ID/Info : Advanced Sub Station Alpha
Compression mode : Lossless
Title : English
Language : English
Default : No
Forced : No
Скріншоти


Подяки:
- B2 Spirit - за постер.
- BILko - за звукову доріжку.
Джерело:
Особиста оцінка: 0 - не дивився


 Трекер:    Зареєстрований   

Завантажити / скачати фільм українською



відео для новачків



 Зареєстрований:   2014-02-28 09:22
 Розмір:   5.49 GB 
 Оцінка фільму:   9.9/10 (Голосів: 7)
 The Town [Theatralic Cut] (2010) BDRip 720p [Ukr, Eng] [Hurtom]
   
Ваш часовий пояс: GMT + 2 Години

Нова тема   Відповісти