Завантажити та скачати торренти українською


Screaming Forest - Holy Satan (2011) [FLAC] | Black Metal

Нові коментарі

Нова тема   Відповісти
Останній раз роздавалося alenas2001 (2015-07-17)
Автор Повідомлення
Anonymous 







2014-02-16 12:01  
Screaming Forest - Holy Satan (2011) [FLAC] | Black Metal



Стиль: Black Metal
Країна, місто: Україна, Єнакієво
Видавець: More Hate Productions
Виконавці:
HOLOCAUST- гітара/вокал
HELLFUCK- басс
LECTER- ударні
Пісні:
    1. Helladise
    2. Holy Satan
    3. Hate Preserving Law
    4. Tyrant's Anthem
    5. Terrible Demons Of Plague
    6. Sadistic Empire
    7. Destignation-Slaing
    8. Storm
    9. You Are Nothing
    10. Revolt Against Light

Тривалість: 00:33:05
Мова: англійська
Аудіо-кодек: FLAC
Бітрейт: 1017 кб/с
Джерело: Інтернет
Додаткова інформація:
Screaming Forest – українська блек метал група заснована у серпні 2005 року в Єнакієво, Донецька область. Грають сирий первородний блек метал в дусі ранніх Gorgoroth, Satyricon. В складі учасники таких груп як Myrkvids Draumar, Acephala.
log

Exact Audio Copy V1.0 beta 3 from 29. August 2011

EAC extraction logfile from 4. April 2012, 22:29

Screaming Forest / Holy Satan

Used drive : Optiarc DVD RW AD-5200S Adapter: 1 ID: 0

Read mode : Secure
Utilize accurate stream : Yes
Defeat audio cache : Yes
Make use of C2 pointers : No

Read offset correction : 48
Overread into Lead-In and Lead-Out : No
Fill up missing offset samples with silence : Yes
Delete leading and trailing silent blocks : No
Null samples used in CRC calculations : Yes
Used interface : Native Win32 interface for Win NT & 2000

Used output format : User Defined Encoder
Selected bitrate : 896 kBit/s
Quality : High
Add ID3 tag : Yes
Command line compressor : C:\Program Files\Exact Audio Copy\Flac\flac.exe
Additional command line options : -V -8 -T "Date=%year%" -T "Genre=%genre%" %source%

TOC of the extracted CD

Track | Start | Length | Start sector | End sector
---------------------------------------------------------
1 | 0:00.00 | 2:18.45 | 0 | 10394
2 | 2:18.45 | 3:11.30 | 10395 | 24749
3 | 5:30.00 | 3:36.06 | 24750 | 40955
4 | 9:06.06 | 3:12.47 | 40956 | 55402
5 | 12:18.53 | 3:24.59 | 55403 | 70761
6 | 15:43.37 | 3:10.68 | 70762 | 85079
7 | 18:54.30 | 3:23.53 | 85080 | 100357
8 | 22:18.08 | 3:41.01 | 100358 | 116933
9 | 25:59.09 | 3:44.46 | 116934 | 133779
10 | 29:43.55 | 3:26.25 | 133780 | 149254

Range status and errors

Selected range

Filename C:\Ultrametal\Screaming Forest - Holy Satan.wav

Peak level 96.4 %
Extraction speed 3.5 X
Range quality 100.0 %
Test CRC D563AFA2
Copy CRC D563AFA2
Copy OK

No errors occurred

AccurateRip summary

Track 1 not present in database
Track 2 not present in database
Track 3 not present in database
Track 4 not present in database
Track 5 not present in database
Track 6 not present in database
Track 7 not present in database
Track 8 not present in database
Track 9 not present in database
Track 10 not present in database

None of the tracks are present in the AccurateRip database

End of status report

==== Log checksum 48BD6A5058CE4062B95A8E9DED8C5117413CB8F46EDA003638899BAACEF6AF59 ====
Якщо Ви справді бажаєте підтримати українське - після прослуховування, якщо музика вам сподобалась, придбайте ліцензійний диск. Підтримаймо вітчизняних виконавців!


Срібний реліз (на рейтинг впливає 50% завантаженого)
 Трекер:    Зареєстрований   

Завантажити / скачати українську музику



відео для новачків



 Зареєстрований:   2014-02-16 12:01
 Розмір:   242 MB 
 Оцінка музики:   10/10 (Голосів: 1)
   
Deformal 
Localize Team
Localize Team


З нами з: 30.12.12
Востаннє: 26.02.15
Повідомлень: 79

2014-02-16 20:14  
"сирий первородний блек метал" - знов неякісний і дратуючий звук?
Anonymous 







2014-02-16 20:27  
Deformal написано:
"сирий первородний блек метал" - знов неякісний і дратуючий звук?

та ні,звук ніби нормальний

Ваш часовий пояс: GMT + 2 Години

Нова тема   Відповісти