Завантажити та скачати торренти українською


Первісний страх / Primal Fear (1996) 720p 3xUkr/Eng | sub Ukr/Eng/Fre/Por/Spa

Нові коментарі

Нова тема   Відповісти
Автор Повідомлення
bodia87 
Відео Гуртом - фільмокрай
Відео Гуртом - фільмокрай


З нами з: 24.01.09
Востаннє: 03.12.16
Повідомлень: 468

2014-02-15 17:09  
Первісний страх / Primal Fear (1996) 720p 3xUkr/Eng | sub Ukr/Eng/Fre/Por/Spa

Первісний страх / Primal Fear (1996) 720p 3xUkr/Eng | sub Ukr/Eng/Fre/Por/Spa


Жанр: кримінальний, драма, трилер
Країна: США



Кінокомпанія: Paramount Pictures, Rysher Entertainment
Режисер: Грегорі Хобліт
Актори: Річард Гір, Едвард Нортон, Лора Лінні, Джон Мехоуні, Елфрі Вудард, Френсіс МакДорманд

Сюжет:
Страх, брехня і цинізм - основні теми судової драми. У вбивстві чиказького архієпископа звинувачується молодий хлопець, який, незважаючи на всі докази, заперечує свою вину і переконує в цьому свого адвоката. Їхні стосунки стають все більш напруженими і заплутаними. У ході судового процесу стикаються колишні коханці - прокурор Дженет Вінейбл і адвокат Мартін Вейл, роль якого виконує голлівудська зірка, сивочолий красень Річард Гір.


Тривалість: 02:10:27
Якість:
Відео:
кодек:
розмір кадру: 1280 х 720
бітрейт: 7 196 кб/с

Аудіо # 1:
мова: українська
переклад: багатоголосий закадровий
кодек: 5.1
бітрейт: 384 кб/с

Аудіо # 2:
мова: українська
переклад: двоголосий закадровий
кодек: 5.1
бітрейт: 448 кб/с

Аудіо # 3:
мова: українська
переклад: багатоголосий закадровий
кодек: 2.0
бітрейт: 192 кб/с

Аудіо # 4:
мова: англійська
переклад: оригінал
кодек: 5.1
бітрейт: 448 кб/с

Субтитри: до другої доріжки для фрагментів без озвучення
мова: українська
тип: програмні (м'які)
формат: *.srt

Субтитри:
мова: англійська
тип: програмні (м'які)
формат: *.srt

Субтитри:
мова: французька
тип: програмні (м'які)
формат: *.srt

Субтитри:
мова: португальська
тип: програмні (м'які)
формат: *.srt

Субтитри:
мова: іспанська
тип: програмні (м'які)
формат: *.srt
MediaInfo
General
Unique ID : 173985859821317284553119003556255759359 (0x82E4752DFD22700692F958954F25FBFF)
Complete name : F:\release\Primal Fear (1996) 720p [3xUKR.ENG] Hurtom.mkv
Format : Matroska
Format version : Version 2
File size : 7.90 GiB
Duration : 2h 10mn
Overall bit rate : 8 669 Kbps
Movie name : Primal Fear (1996) - for Hurtom.com
Encoded date : UTC 2014-02-15 09:17:58
Writing application : mkvmerge v4.4.0 ('Die Wiederkehr') зібрано Oct 31 2010 21:52:48
Writing library : libebml v1.0.0 + libmatroska v1.0.0

Video
ID : 1
Format : AVC
Format/Info : Advanced Video Codec
Format profile : [email protected]
Format settings, CABAC : Yes
Format settings, ReFrames : 9 frames
Codec ID : V_MPEG4/ISO/AVC
Duration : 2h 10mn
Bit rate : 7 196 Kbps
Width : 1 280 pixels
Height : 720 pixels
Display aspect ratio : 16:9
Frame rate mode : Constant
Frame rate : 23.976 fps
Color space : YUV
Chroma subsampling : 4:2:0
Bit depth : 8 bits
Scan type : Progressive
Bits/(Pixel*Frame) : 0.326
Stream size : 6.40 GiB (81%)
Title : Ukr for Hurtom.com
Writing library : core 67 r1173M f6d3166
Encoding settings : cabac=1 / ref=9 / deblock=1:-3:-3 / analyse=0x3:0x113 / me=umh / subme=9 / psy_rd=0.9:0.7 / mixed_ref=1 / me_range=32 / chroma_me=1 / trellis=2 / 8x8dct=1 / cqm=0 / deadzone=21,11 / chroma_qp_offset=-4 / threads=6 / nr=0 / decimate=1 / mbaff=0 / bframes=4 / b_pyramid=0 / b_adapt=2 / b_bias=0 / direct=3 / wpredb=1 / keyint=250 / keyint_min=25 / scenecut=40 / rc=2pass / bitrate=7196 / ratetol=1.0 / qcomp=0.60 / qpmin=10 / qpmax=51 / qpstep=4 / cplxblur=20.0 / qblur=0.5 / vbv_maxrate=50000 / vbv_bufsize=50000 / ip_ratio=1.40 / pb_ratio=1.30 / aq=1:0.80
Language : English
Default : Yes
Forced : No

Audio #1
ID : 2
Format : AC-3
Format/Info : Audio Coding 3
Mode extension : CM (complete main)
Format settings, Endianness : Big
Codec ID : A_AC3
Duration : 2h 10mn
Bit rate mode : Constant
Bit rate : 384 Kbps
Channel(s) : 6 channels
Channel positions : Front: L C R, Side: L R, LFE
Sampling rate : 48.0 KHz
Bit depth : 16 bits
Compression mode : Lossy
Stream size : 358 MiB (4%)
Title : Ukr for Hurtom.com (ICTV)
Language : Ukrainian
Default : Yes
Forced : No

Audio #2
ID : 3
Format : AC-3
Format/Info : Audio Coding 3
Mode extension : CM (complete main)
Format settings, Endianness : Big
Codec ID : A_AC3
Duration : 2h 10mn
Bit rate mode : Constant
Bit rate : 448 Kbps
Channel(s) : 6 channels
Channel positions : Front: L C R, Side: L R, LFE
Sampling rate : 48.0 KHz
Bit depth : 16 bits
Compression mode : Lossy
Stream size : 418 MiB (5%)
Title : Ukr for Hurtom.com (NovyChannel)
Language : Ukrainian
Default : No
Forced : No

Audio #3
ID : 4
Format : AC-3
Format/Info : Audio Coding 3
Mode extension : CM (complete main)
Format settings, Endianness : Big
Codec ID : A_AC3
Duration : 2h 10mn
Bit rate mode : Constant
Bit rate : 192 Kbps
Channel(s) : 2 channels
Channel positions : Front: L R
Sampling rate : 48.0 KHz
Bit depth : 16 bits
Compression mode : Lossy
Stream size : 179 MiB (2%)
Title : Ukr for Hurtom.com (Inter)
Language : Ukrainian
Default : No
Forced : No

Audio #4
ID : 5
Format : AC-3
Format/Info : Audio Coding 3
Mode extension : CM (complete main)
Format settings, Endianness : Big
Codec ID : A_AC3
Duration : 2h 10mn
Bit rate mode : Constant
Bit rate : 448 Kbps
Channel(s) : 6 channels
Channel positions : Front: L C R, Side: L R, LFE
Sampling rate : 48.0 KHz
Bit depth : 16 bits
Compression mode : Lossy
Stream size : 418 MiB (5%)
Language : English
Default : No
Forced : No

Text #1
ID : 6
Format : UTF-8
Codec ID : S_TEXT/UTF8
Codec ID/Info : UTF-8 Plain Text
Language : Ukrainian
Default : No
Forced : No

Text #2
ID : 7
Format : UTF-8
Codec ID : S_TEXT/UTF8
Codec ID/Info : UTF-8 Plain Text
Language : English
Default : No
Forced : No

Text #3
ID : 8
Format : UTF-8
Codec ID : S_TEXT/UTF8
Codec ID/Info : UTF-8 Plain Text
Language : French
Default : No
Forced : No

Text #4
ID : 9
Format : UTF-8
Codec ID : S_TEXT/UTF8
Codec ID/Info : UTF-8 Plain Text
Language : Portuguese
Default : No
Forced : No

Text #5
ID : 10
Format : UTF-8
Codec ID : S_TEXT/UTF8
Codec ID/Info : UTF-8 Plain Text
Language : Spanish
Default : No
Forced : No

Menu
00:00:00.000 : en:00:00:00.000
00:01:39.099 : en:00:01:39.099
00:08:00.438 : en:00:08:00.438
00:10:00.058 : en:00:10:00.058
00:12:48.309 : en:00:12:48.309
00:17:45.940 : en:00:17:45.940
00:24:19.500 : en:00:24:19.500
00:31:55.705 : en:00:31:55.705
00:34:31.903 : en:00:34:31.903
00:35:36.343 : en:00:35:36.343
00:39:44.090 : en:00:39:44.090
00:47:32.058 : en:00:47:32.058
00:52:55.839 : en:00:52:55.839
00:57:29.905 : en:00:57:29.905
01:00:14.402 : en:01:00:14.402
01:03:38.690 : en:01:03:38.690
01:11:51.974 : en:01:11:51.974
01:19:44.822 : en:01:19:44.822
01:24:07.459 : en:01:24:07.459
01:30:25.962 : en:01:30:25.962
01:35:58.586 : en:01:35:58.586
01:42:41.155 : en:01:42:41.155
01:49:05.956 : en:01:49:05.956
01:55:05.941 : en:01:55:05.941
01:59:48.556 : en:01:59:48.556
02:06:41.594 : en:02:06:41.594
Скріншоти









Висловлюю подяку JACKUS та МАКАРОННІК за доріжку від

Джерело: &
Особиста оцінка: 10 - без зайвих вагань рекомендую всім!


Срібний реліз (на рейтинг впливає 50% завантаженого)
 Трекер:    Зареєстрований   

Завантажити / скачати фільм українською



відео для новачків



 Зареєстрований:   2014-02-15 17:09
 Розмір:   7.9 GB 
 Оцінка фільму:   8.3/10 (Голосів: 6)
   
Інші релізи
   Первісний страх / Primal Fear (1996) 3xUkr/Eng Arsenfpu  7 / 0   2.89 GB   2016-04-12 20:25 
   Первісний страх / Primal Fear (1996) [MP4, 640x] apvAltisimo  0 / 0   870 MB   2016-02-16 13:47 
   Первісний страх / Primal Fear (1996) AVC 2xUkr/Eng Yarik M  3 / 0   4.36 GB   2014-07-05 21:36 
patriot2305 
Почесний гуртомівець


З нами з: 23.04.11
Востаннє: 03.12.16
Повідомлень: 4145

2014-02-15 18:05  
bodia87 написано:
мова: польська

bodia87 написано:
Language : Portuguese

bodia87 написано:
мова: італійська
bodia87 написано:
Language : Spanish

Щось тут наплутано...

bodia87 
Відео Гуртом - фільмокрай
Відео Гуртом - фільмокрай


З нами з: 24.01.09
Востаннє: 03.12.16
Повідомлень: 468

2014-02-15 18:43  
patriot2305 написано:
Щось тут наплутано...


Забув поміняти коли в списку вибирав.
П.С. Буває Happy

11FrYkT 
Модератор відео


З нами з: 20.02.11
Востаннє: 03.12.16
Повідомлень: 3079

2014-02-15 19:09  
bodia87 , ще опис 4-ої доріжки підправте
bodia87 
Відео Гуртом - фільмокрай
Відео Гуртом - фільмокрай


З нами з: 24.01.09
Востаннє: 03.12.16
Повідомлень: 468

2014-02-15 19:37  
11FrYkT написано:
bodia87 , ще опис 4-ої доріжки підправте


дякую, підправив

olyx 
Відео Гуртом - підтримка та поширення
Відео Гуртом - підтримка та поширення


З нами з: 25.01.10
Востаннє: 05.10.16
Повідомлень: 231

2014-02-16 12:33  
Знову срібло забули присвоїти)))
zaika 
VIP


З нами з: 01.07.12
Востаннє: 03.12.16
Повідомлень: 947

2014-03-01 11:29  
Сильний, психологічний фільм з дещо несподіваним закінченням. Судова системи США явно не ідеальна, але вона діє, на відміну від нашої. Спасибі за фільм. 9/10.
Ваш часовий пояс: GMT + 2 Години

Нова тема   Відповісти