Завантажити та скачати торренти українською


Відкрита могила / Open Grave (2013) 1080p Ukr/Eng

Нові коментарі

Нова тема   Відповісти
Автор Повідомлення
BOOGud 
VIP


З нами з: 06.03.12
Востаннє: 11.11.16
Повідомлень: 907

2014-02-15 02:38  
Відкрита Могила / Open Grave (2013) 1080p Ukr/Eng

Відкрита могила / Open Grave (2013) 1080p Ukr/Eng


Жанр: жахи, містика, триллер, екшн
Країна: США



Кінокомпанія: Atlas
Режисер: Гонсало Лопес-Гальєго (Аполлон 18, Царь Гори )
Актори: Шарлто Коплі (Район N9, Елізіум) , Джозеф Морган, Томас Кречман, Ерін Річардс, Джозі Хо, Макс Роттслі, Каті Домбі, Єва Ботос, Березень Сабо, М. Фрайкс

Переклад : BOOGud
Озвучення: Дмитро Урсуляк
Монтаж та робота зі звуком: BOOGud.
Об'ємний звук(5.1): BOOGud
Обкладинки:


Сюжет:
Чоловік опритомнів у відкритому могильнику серед безлічі трупів. Йому вдається вибратися і в лісі він знаходить будинок, де зустрічає ще людей, що так само як і він, втратили пам'ять. Далі герої намагаються з'ясувати, що ж сталося раніше.


Тривалість: 01:42:34
Якість:
Відео:
кодек:
розмір кадру: 1 920 х 792
бітрейт: 9 386 кб/с

Аудіо # 1:
мова: українська
переклад: одноголосий закадровий | BOOGud
кодек: 5.1
бітрейт: 640 кб/с

Аудіо # 2:
мова: англійська
переклад: оригінал
кодек: 5.1
бітрейт: 1 509 кб/с

MediaInfo
General
Unique ID : 251768771974327225966721987674067314494 (0xBD68E6D5DB578AA880066F3B41F6273E)
Complete name : I:\!!!720p\!2160\Open.Grave.2013.1080p.BluRay.UKR.ENG.[BOOGud].mkv
Format : Matroska
Format version : Version 4 / Version 2
File size : 8.40 GiB
Duration : 1h 42mn
Overall bit rate : 11.8 Mbps
Encoded date : UTC 2014-02-13 21:45:07
Writing application : mkvmerge v6.6.0 ('The Edge Of The In Between') built on Dec 1 2013 17:55:00
Writing library : libebml v1.3.0 + libmatroska v1.4.1

Video
ID : 1
Format : AVC
Format/Info : Advanced Video Codec
Format profile : [email protected]
Format settings, CABAC : Yes
Format settings, ReFrames : 5 frames
Codec ID : V_MPEG4/ISO/AVC
Duration : 1h 42mn
Bit rate : 9 386 Kbps
Width : 1 920 pixels
Height : 792 pixels
Display aspect ratio : 2.40:1
Frame rate mode : Constant
Frame rate : 24.000 fps
Color space : YUV
Chroma subsampling : 4:2:0
Bit depth : 8 bits
Scan type : Progressive
Bits/(Pixel*Frame) : 0.257
Stream size : 6.70 GiB (80%)
Title : video
Language : English
Default : Yes
Forced : No

Audio #1
ID : 2
Format : AC-3
Format/Info : Audio Coding 3
Mode extension : CM (complete main)
Format settings, Endianness : Big
Codec ID : A_AC3
Duration : 1h 42mn
Bit rate mode : Constant
Bit rate : 640 Kbps
Channel count : 6 channels
Channel positions : Front: L C R, Side: L R, LFE
Sampling rate : 48.0 KHz
Bit depth : 16 bits
Compression mode : Lossy
Stream size : 468 MiB (5%)
Title : UKR5.1[BOOGud]
Language : Ukrainian
Default : Yes
Forced : No

Audio #2
ID : 3
Format :
Format/Info : Digital Theater Systems
Mode : 16
Format settings, Endianness : Big
Codec ID : A_DTS
Duration : 1h 42mn
Bit rate mode : Constant
Bit rate : 1 509 Kbps
Channel count : 6 channels
Channel positions : Front: L C R, Side: L R, LFE
Sampling rate : 48.0 KHz
Bit depth : 24 bits
Compression mode : Lossy
Stream size : 1.08 GiB (13%)
Title : оригинал
Language : English
Default : No
Forced : No

Menu
00:00:00.000 : en:00:00:00.000
00:12:34.375 : en:00:12:34.375
00:20:01.875 : en:00:20:01.875
00:26:48.667 : en:00:26:48.667
00:39:16.875 : en:00:39:16.875
00:46:26.625 : en:00:46:26.625
00:56:17.333 : en:00:56:17.333
01:03:25.208 : en:01:03:25.208
01:14:28.750 : en:01:14:28.750
01:24:17.708 : en:01:24:17.708
Скріншоти




























































Джерело: uavoice.com
Особиста оцінка: 10 - без зайвих вагань рекомендую всім!


Авторський реліз (завантажувати можна без реєстрації)
 Трекер:    Зареєстрований   

Завантажити / скачати фільм українською



відео для новачків



 Зареєстрований:   2014-02-15 02:40
 Розмір:   8.4 GB 
 Оцінка фільму:   9.4/10 (Голосів: 8)
   
Інші релізи
   Відкрита могила / Open Grave (2013) Ukr/Eng BOOGud  4 / 0   1.69 GB   2013-12-10 04:49 
   Відкрита могила / Open Grave (2013) 720p Ukr/Eng BOOGud  3 / 0   4.83 GB   2013-12-10 04:29 
bot 
робот


З нами з: 30.09.07
Востаннє: 26.05.05
Повідомлень: 15973

2014-02-15 02:40  
Тему перенесено з Анонси релізів до форуму Фільми в HD


BOOGud

UkraineUkraine7 
Новенький


З нами з: 07.12.12
Востаннє: 13.09.14
Повідомлень: 4

2014-02-15 09:49  
на кшталт "5 невідомих"?
jaguar_arx 
Свій


З нами з: 27.08.12
Востаннє: 01.12.16
Повідомлень: 77

2014-03-12 06:37  
Прикольне кіно. Дякую хлопцям за озвучення і переклад. Описання сюжету в два рядки поганеньке, не привертає достатньо уваги. А фільм добрий і цікавий.
zaika 
VIP


З нами з: 01.07.12
Востаннє: 03.12.16
Повідомлень: 947

2014-03-14 09:19  
Апокаліпсис сьогодні.
Одне не зрозумів, звідки всі знали що завтра буде 18 число, коли ніхто нічого не пам*ятав. Відповідно і те - яке ж число сьогодні.
Переклад П. Урсуляка напевне добрий, але озвучка явно з брачком.
9/10.

Ваш часовий пояс: GMT + 2 Години

Нова тема   Відповісти