Завантажити та скачати торренти українською


Гравітація / Gravity (2013) 720p-mini

Нові коментарі

Нова тема   Відповісти
Автор Повідомлення
Drool 
VIP


З нами з: 17.04.10
Востаннє: 06.12.16
Повідомлень: 1264

2014-02-14 09:07  
Гравітація / Gravity (2013) 720p-mini

Жанр: драма, фантастика, трилер
Країна: США, Велика Британія



Кінокомпанія: Warner Bros., Esperanto Filmoj, Heyday Films
Режисер: Альфонсо Куарон
Актори: Сандра Баллок, Джордж Клуні, Ед Харріс, Орто Іґнатіуссен, Фалдут Шарма, Емі Воррен, Башер Саваж, Дженіс Ахерн

Сюжет:
Група астронавтів коротає дні на космічній станції на орбіті Землі. Одного разу, коли капітан і його миловидна колега виконують завдання у відкритому космосі, уламки супутника, що вибухнув, вбивають весь екіпаж та знищують їх корабель. Двоє бідолах залишаються зовсім самі за сотні миль від Землі, намагаючись знайти спосіб повернутися додому.


Тривалість: 01:30:58
Якість: 720p-mini
Відео:
кодек:
розмір кадру: 1280 x 534
бітрейт: 2445 кб/с

Аудіо:
мова: українська
переклад: професійний дубльований
кодек: 5.1
бітрейт: 448 кб/с

Субтитри:
мова: українська (форсовані)
тип: програмні (м'які)
формат: *.srt
Джерело озвучення:
MediaInfo
General
Unique ID : 278371006188658835043101217267305500363 (0xD16C4E3EDE49791238B43B01728D4ECB)
Complete name : /mnt/disk_d/Video/Gravity.2013.Ukr.Dub..720p-mini.UAGet.mkv
Format : Matroska
Format version : Version 2
File size : 1.84 GiB
Duration : 1h 30mn
Overall bit rate : 2 897 Kbps
Writing application : HandBrake rev0
Writing library : libmkv 0.6.5
TITLE : Гравітація / Gravity (2013) 720p-mini -=UAGet=-
ARTIST : Сандра Баллок, Джордж Клуні, Ед Харріс, Орто Іґнатіуссен, Фалдут Шарма та інші
DIRECTOR : Альфонсо Куарон
DATE_RELEASED : 2013
GENRE : драма, фантастика, трилер
SYNOPSIS : Група астронавтів коротає дні на космічній станції на орбіті Землі. Одного разу, коли капітан і його миловидна колега виконують завдання у відкритому космосі, уламки супутника, що вибухнув, вбивають весь екіпаж та знищують їх корабель. Двоє бідолах залишаються зовсім самі за сотні миль від Землі, намагаючись знайти спосіб повернутися додому.

Video
ID : 1
Format : AVC
Format/Info : Advanced Video Codec
Format profile : [email protected]
Format settings, CABAC : Yes
Format settings, ReFrames : 10 frames
Codec ID : V_MPEG4/ISO/AVC
Duration : 1h 30mn
Bit rate : 2 445 Kbps
Width : 1 280 pixels
Height : 534 pixels
Display aspect ratio : 2.40:1
Frame rate : 23.976 fps
Color space : YUV
Chroma subsampling : 4:2:0
Bit depth : 8 bits
Scan type : Progressive
Bits/(Pixel*Frame) : 0.149
Stream size : 1.52 GiB (83%)
Writing library : core 142 r2389 956c8d8
Encoding settings : cabac=1 / ref=11 / deblock=1:-3:-3 / analyse=0x3:0x133 / me=umh / subme=11 / psy=1 / psy_rd=1,10:0,15 / mixed_ref=1 / me_range=32 / chroma_me=1 / trellis=2 / 8x8dct=1 / cqm=0 / deadzone=21,11 / fast_pskip=0 / chroma_qp_offset=-3 / threads=6 / lookahead_threads=1 / sliced_threads=0 / nr=0 / decimate=1 / interlaced=0 / bluray_compat=0 / constrained_intra=0 / bframes=9 / b_pyramid=1 / b_adapt=2 / b_bias=0 / direct=3 / weightb=1 / open_gop=0 / weightp=2 / keyint=240 / keyint_min=24 / scenecut=40 / intra_refresh=0 / rc=2pass / mbtree=0 / bitrate=2445 / ratetol=1,0 / qcomp=1,00 / qpmin=0 / qpmax=69 / qpstep=4 / cplxblur=20,0 / qblur=0,5 / ip_ratio=1,40 / pb_ratio=1,30 / aq=2:0,60
Language : English
Default : Yes
Forced : No
Color primaries : BT.709-5, BT.1361, IEC 61966-2-4, SMPTE RP177
Transfer characteristics : BT.709-5, BT.1361
Matrix coefficients : BT.709-5, BT.1361, IEC 61966-2-4 709, SMPTE RP177

Audio
ID : 2
Format : AC-3
Format/Info : Audio Coding 3
Mode extension : CM (complete main)
Codec ID : A_AC3
Duration : 1h 30mn
Bit rate mode : Constant
Bit rate : 448 Kbps
Channel(s) : 6 channels
Channel positions : Front: L C R, Side: L R, LFE
Sampling rate : 48.0 KHz
Bit depth : 16 bits
Compression mode : Lossy
Stream size : 292 MiB (15%)
Language : Ukrainian
Default : Yes
Forced : No

Text
ID : 3
Format : UTF-8
Codec ID : S_TEXT/UTF8
Codec ID/Info : UTF-8 Plain Text
Language : Ukrainian
Default : Yes
Forced : No
Скріншоти




Джерело:
Особиста оцінка: 9 - давно не бачив настільки якісне кіно


 Трекер:    Зареєстрований   

Завантажити / скачати фільм українською



відео для новачків



 Зареєстрований:   2014-02-18 08:59
 Розмір:   1.84 GB 
 Оцінка фільму:   9.6/10 (Голосів: 34)
   
Інші релізи
   Гравітація / Gravity (2013) 720p Ukr/Eng | Sub Ukr (60fps) dr_stas  8 / 0   4.8 GB   2014-04-27 16:01 
   Гравітація / Gravity (2013) 1080p Ukr/Eng (3D) [Half OverUnder] famous37  7 / 0   11.81 GB   2014-02-14 19:03 
   Гравітація / Gravity (2013) 1080p Ukr/Eng | Sub Ukr/Eng 11FrYkT  6 / 0   6.84 GB   2014-02-14 18:50 
   Гравітація / Gravity (2013) AVC Ukr/Eng | Sub Ukr/Eng aalleexx85  2 / 0   3.08 GB   2014-02-14 16:27 
   Гравітація / Gravity (2013) 720p Ukr/Eng | Sub Ukr/Eng 11FrYkT  4 / 0   4.65 GB   2014-02-14 10:09 
   Гравітація / Gravity (2013) Ukr/Eng | Sub Ukr/Eng karvai0  10 / 4   1.73 GB   2014-02-14 09:55 
   Гравітація / Gravity (2013) Blu-ray CEE Multi | Sub Multi smak2001  1 / 0   42.98 GB   2014-02-14 01:59 
bot 
робот


З нами з: 30.09.07
Востаннє: 26.05.05
Повідомлень: 16005

2014-02-14 09:07  
Тему перенесено з Фільми в HD до форуму Анонси релізів


Drool

Drool 
VIP


З нами з: 17.04.10
Востаннє: 06.12.16
Повідомлень: 1264

2014-02-14 09:11  
Орієнтовно - на початку наступного тижня, як докачається блюрей.
Sirsera 
Новенький


З нами з: 12.07.13
Востаннє: 28.11.16
Повідомлень: 1

2014-02-14 18:13  
Можете, будь-ласка, викласти аудіо дорожку. Буду дуже вдячним.
Drool 
VIP


З нами з: 17.04.10
Востаннє: 06.12.16
Повідомлень: 1264

2014-02-14 21:26  
Sirsera написано:
Можете, будь-ласка, викласти аудіо дорожку. Буду дуже вдячним.

Відписав у приват.

bot 
робот


З нами з: 30.09.07
Востаннє: 26.05.05
Повідомлень: 16005

2014-02-18 08:59  
Тему перенесено з Анонси релізів до форуму Фільми в HD


Drool

rockystar5 
Новенький


З нами з: 06.01.12
Востаннє: 16.05.14
Повідомлень: 10

2014-02-18 17:00  
гарно дякую, чекав вашого ріпу в 720-mini
trelxtrel 
VIP


З нами з: 15.12.10
Востаннє: 06.12.16
Повідомлень: 327

2014-03-19 09:57  
В загальному фільм непоганий і в більшості завдяки ефекту 3D (хто мав змогу глянути). А якщо оцінювати фільм в цілому, то не сподобалась дуже награний сюжет (реалізму дуже мало). Запланували, що головний герой має врятуватись- і крапка! Не страшні йому ні удари, ні космічні уламки, ні пожежа, ні в деяких моментах просто відсутність кисню! Це неправильно - хорошу картинку 3D потрібно було підкріпити якоюсь не менш реалістичною історією.

Ідея не погана, а от реалізація кульгає!

7/10 (і це з натяжкою за гарну 3D картинку)

Глечик 
Новенький


З нами з: 23.04.11
Востаннє: 02.12.16
Повідомлень: 18

2014-04-16 15:55  
Скажіть, будь ласка, в чому різниця між 720p та 720p-mini і як це відображається на якості відео?
Drool 
VIP


З нами з: 17.04.10
Востаннє: 06.12.16
Повідомлень: 1264

2014-04-16 20:35  
Глечик написано:
Скажіть, будь ласка, в чому різниця між 720p та 720p-mini і як це відображається на якості відео?

Менший бітрейт - менший розмір файлу. Щільність відеопотоку менша, тому якість трохи слабша за "важкі" ріпи. Є зразок відео, скачайте та оцініть, влаштує якість чи ні.

Глечик 
Новенький


З нами з: 23.04.11
Востаннє: 02.12.16
Повідомлень: 18

2014-04-16 23:41  
Дякую, про зразок не знав.
Ваш часовий пояс: GMT + 2 Години

Нова тема   Відповісти