Завантажити та скачати торренти українською


Штучний розум / Artificial Intelligence: AI (2001) 1080p 4xUkr/Eng | Sub Ukr/Eng

Нові коментарі

Нова тема   Відповісти
Автор Повідомлення
bea-r 
Новенький


З нами з: 21.01.14
Востаннє: 22.06.16
Повідомлень: 2

2014-02-13 16:40  
Штучний розум / Artificial Intelligence: AI (2001) 1080p 4xUkr/Eng | Sub Ukr/Eng

Штучний розум / Artificial Intelligence: AI (2001) 1080p 4xUkr/Eng | Sub Ukr/Eng


«Journey To A World Where Robots Dream And Desire»


Жанр: пригодницький, драма, фантастика
Країна: США



Кінокомпанія: Warner Bros. Pictures, DreamWorks SKG, Amblin Entertainment
Режисер: Стівен Спілберґ (Steven Spielberg)
Актори: Гейлі Джоель Осмент (Haley Joel Osment), Френсіс О`Коннор (Frances O'Connor), Сем Робардс (Sam Robards), Джейк Томас (Jake Thomas), Джуд Лоу (Jude Law), Вільям Герт (William Hurt), Кен Люнґ (Ken Leung) та інші.

Сюжет:
У майбутньому світі глобального потепління, що вирвався з-під контролю, і досягнень науки, що лякають, смертні живуть пліч-о-пліч з дивними й складними роботами. Але коли просунутий прототип робота-дитини на ім’я Дейвід програмується на прояв безкорисливої любові, члени його людської родини виявляються неготовими до наслідків такого почуття. Зненацька Дейвід опиняється один у дивному й небезпечному світі. За допомогою вуличного робота Дейвід вирушає на пошуки загадки свого власного походження.
"Номінації, перемоги, цікавинки"
Оскар, 2002 рік

Номінації (2):
Найкращі візуальні ефекти
Найкращий оригінальний саундтрек


Золотий ґлобус, 2002 рік
Номінації (3):
Найкраща чоловіча роль другого плану (Джуд Лоу)
Найкращий режисер (Стівен Спілберґ)
Найкращий саундтрек

Британська академія, 2002 рік
Номінації (1):
Найкращі візуальні ефекти

Венеціанський кінофестиваль, 2001 рік
Переможець (1):
Приз «Future Film Festival Digital Award»

Цікаві факти про фільм


• Фільм був задуманий Стенлі Кубриком у далекому 1969 році. Тридцять років Кубрик виношував цю ідею, а до початку створення картини пішов з життя, але його друг, Стівен Спілберґ, у пам’ять про великого режисера втілив його наміри в життя.
• Фільм знято за мотивами оповідання Браяна Олдісса «Супер іграшки живуть ціле літо» («Supertoys Last All Summer Long»).
• До написання сценарію був притягнутий спочатку сам автор розповіді, Браян Олдісс, а потім Кубрик звернувся за допомогою до Артура Кларка, але і з цього творчого тандему нічого не вийшло.
• «Штучний розум» виграв у п'яти номінаціях кінопремії «Сатурн», включаючи номінацію «Найкращий науково-фантастичний фільм», а також номінувався на «Оскар» у 2002 році за «Найкращі візуальні ефекти» та «Найкращий оригінальний саундтрек».
• У фільмі присутня діалог між Девідом і Тедді: (Девід) А тато і мама - справжні? (Тедді) Не задавай дурних питань. Ніхто не знає, що це таке - «справжні». Це точна цитата з розповіді фантаста Браяна Олдісса, за мотивами якого знятий фільм.
• Журнал Rolling Stone назвав картину Стівена Спілберґа «справжньою роботою справжнього кінематографіста».
"MediaInfo"
Общее
Уникальный идентификатор : 246087240199636104548067383358020846003 (0xB922ADB1135B0CA582BDB8D9B5AB01B3)
Полное имя : A.I. Artificial Intelligence.2001..1080p.4xUkr.Eng.bea-r.mkv
Формат : Matroska
Версия формата : Version 4 / Version 2
Размер файла : 12,9 Гбайт
Продолжительность : 2 ч. 25 м.
Общий поток : 12,7 Мбит/сек
Название фильма : A.I. Artificial Intelligence.2001..1080p.by bea-r
Дата кодирования : UTC 2014-02-13 13:26:17
Программа кодирования : mkvmerge v6.7.0 ('Back to the Ground') 64bit built on Jan 8 2014 15:10:52
Библиотека кодирования : libebml v1.3.0 + libmatroska v1.4.1
Attachment : Yes

Видео
Идентификатор : 1
Формат : AVC
Формат/Информация : Advanced Video Codec
Профиль формата : [email protected]
Параметр CABAC формата : Да
Параметр ReFrames формата : 4 кадра
Идентификатор кодека : V_MPEG4/ISO/AVC
Продолжительность : 2 ч. 25 м.
Битрейт : 10,5 Мбит/сек
Ширина : 1920 пикселей
Высота : 1080 пикселей
Соотношение сторон : 16:9
Режим частоты кадров : Постоянный
Частота кадров : 23,976 кадра/сек
Цветовое пространство : YUV
Субдискретизация насыщенности : 4:2:0
Битовая глубина : 8 бит
Тип развёртки : Прогрессивная
Бит/(Пиксели*Кадры) : 0.211
Размер потока : 10,4 Гбайт (81%)
Заголовок : A.I. Artificial Intelligence.2001..1080p.by bea-r
Библиотека кодирования : core 138 r2358 9e941d1
Настройки программы : cabac=1 / ref=4 / deblock=1:-1:-1 / analyse=0x3:0x133 / me=umh / subme=10 / psy=1 / psy_rd=1.00:0.15 / mixed_ref=1 / me_range=24 / chroma_me=1 / trellis=2 / 8x8dct=1 / cqm=0 / deadzone=21,11 / fast_pskip=1 / chroma_qp_offset=-3 / threads=6 / lookahead_threads=1 / sliced_threads=0 / nr=0 / decimate=1 / interlaced=0 / bluray_compat=0 / constrained_intra=0 / bframes=8 / b_pyramid=2 / b_adapt=2 / b_bias=0 / direct=3 / weightb=1 / open_gop=0 / weightp=2 / keyint=240 / keyint_min=23 / scenecut=40 / intra_refresh=0 / rc_lookahead=60 / rc=2pass / mbtree=1 / bitrate=10500 / ratetol=1.0 / qcomp=0.60 / qpmin=0 / qpmax=69 / qpstep=4 / cplxblur=20.0 / qblur=0.5 / vbv_maxrate=62500 / vbv_bufsize=78125 / nal_hrd=none / ip_ratio=1.40 / aq=1:1.00
Язык : English
Default : Да
Forced : Нет

Аудио #1
Идентификатор : 2
Формат : AC-3
Формат/Информация : Audio Coding 3
Расширение режима : CM (complete main)
Параметр Endianness формата : Big
Идентификатор кодека : A_AC3
Продолжительность : 2 ч. 25 м.
Вид битрейта : Постоянный
Битрейт : 384 Кбит/сек
Каналы : 6 каналов
Расположение каналов : Front: L C R, Side: L R, LFE
Частота : 48,0 КГц
Битовая глубина : 16 бит
Метод сжатия : С потерями
Задержка видео : 24 мс.
Размер потока : 401 Мбайт (3%)
Заголовок : , 6 ch, 48 kHz, 384 kbps, MVO [ 1+1 | VHS]
Язык : Ukrainian
Default : Да
Forced : Нет

Аудио #2
Идентификатор : 3
Формат : AC-3
Формат/Информация : Audio Coding 3
Расширение режима : CM (complete main)
Параметр Endianness формата : Big
Идентификатор кодека : A_AC3
Продолжительность : 2 ч. 25 м.
Вид битрейта : Постоянный
Битрейт : 384 Кбит/сек
Каналы : 6 каналов
Расположение каналов : Front: L C R, Side: L R, LFE
Частота : 48,0 КГц
Битовая глубина : 16 бит
Метод сжатия : С потерями
Размер потока : 401 Мбайт (3%)
Заголовок : , 6 ch, 48 kHz, 384 kbps, MVO [ICTV]
Язык : Ukrainian
Default : Нет
Forced : Нет

Аудио #3
Идентификатор : 4
Формат : AC-3
Формат/Информация : Audio Coding 3
Расширение режима : CM (complete main)
Параметр Endianness формата : Big
Идентификатор кодека : A_AC3
Продолжительность : 2 ч. 25 м.
Вид битрейта : Постоянный
Битрейт : 384 Кбит/сек
Каналы : 6 каналов
Расположение каналов : Front: L C R, Side: L R, LFE
Частота : 48,0 КГц
Битовая глубина : 16 бит
Метод сжатия : С потерями
Размер потока : 401 Мбайт (3%)
Заголовок : , 6 ch, 48 kHz, 384 kbps, MVO [K1]
Язык : Ukrainian
Default : Нет
Forced : Нет

Аудио #4
Идентификатор : 5
Формат : AC-3
Формат/Информация : Audio Coding 3
Расширение режима : CM (complete main)
Параметр Endianness формата : Big
Идентификатор кодека : A_AC3
Продолжительность : 2 ч. 25 м.
Вид битрейта : Постоянный
Битрейт : 384 Кбит/сек
Каналы : 6 каналов
Расположение каналов : Front: L C R, Side: L R, LFE
Частота : 48,0 КГц
Битовая глубина : 16 бит
Метод сжатия : С потерями
Размер потока : 401 Мбайт (3%)
Заголовок : , 6 ch, 48 kHz, 384 kbps, MVO [Noviy Kanal]
Язык : Ukrainian
Default : Нет
Forced : Нет

Аудио #5
Идентификатор : 6
Формат : AC-3
Формат/Информация : Audio Coding 3
Расширение режима : CM (complete main)
Параметр Endianness формата : Big
Идентификатор кодека : A_AC3
Продолжительность : 2 ч. 25 м.
Вид битрейта : Постоянный
Битрейт : 640 Кбит/сек
Каналы : 6 каналов
Расположение каналов : Front: L C R, Side: L R, LFE
Частота : 48,0 КГц
Битовая глубина : 16 бит
Метод сжатия : С потерями
Размер потока : 668 Мбайт (5%)
Заголовок : , 6 ch, 48 kHz, 640 kbps, Original
Язык : English
Default : Нет
Forced : Нет

Текст #1
Идентификатор : 7
Формат : UTF-8
Идентификатор кодека : S_TEXT/UTF8
Идентификатор кодека/Информация : UTF-8 Plain Text
Заголовок : Повні, субтитри на 99% набрані з тексту Студії 1+1
Язык : Ukrainian
Default : Нет
Forced : Нет

Текст #2
Идентификатор : 8
Формат : UTF-8
Идентификатор кодека : S_TEXT/UTF8
Идентификатор кодека/Информация : UTF-8 Plain Text
Заголовок : SDH
Язык : English
Default : Нет
Forced : Нет

Меню
00:00:00.000 : en:Artificial Intelligence
00:07:10.930 : en:His Life is Merely Pending
00:10:13.696 : en:A Mecha Child
00:15:24.173 : en:Hide and Go Seek
00:18:32.361 : en:Laughter
00:21:43.344 : en:Imprinting Protocol
00:24:21.251 : en:Teddy, a Super-Toy
00:28:42.679 : en:Martin Comes Home
00:30:22.237 : en:The New Super-Toy
00:33:57.160 : en:A Classic Story
00:35:50.023 : en:Competition For Affection
00:39:58.646 : en:Mechas and Orgas
00:45:28.351 : en:Abandoned
00:53:47.474 : en:Gigolo Joe
00:57:46.880 : en:Unregistered Mecha Roundup
01:05:53.992 : en:Flesh Fair: A Celebration of Life
01:09:15.485 : en:"I'm a Boy"
01:17:49.623 : en:Journey Towards the Moon
01:22:29.945 : en:Rouge City
01:25:38.592 : en:Dr. Know
01:31:04.125 : en:"They Hate Us"
01:33:06.456 : en:Escape From Rouge City
01:35:08.328 : en:The City at the End of the World
01:37:56.788 : en:Special and Unique
01:43:44.677 : en:Brothers and Sisters
01:46:52.865 : en:David's Leap
01:49:22.347 : en:A Plea to the Blue Fairy
01:55:42.060 : en:Memories
02:01:34.954 : en:Back Home
02:07:09.247 : en:A Question of Happiness
02:11:43.229 : en:A Perfect Day
02:18:39.520 : en:End Credits
Тривалість: 02:25:51
Якість: 1080р (відео-ряд: bea-r)
Відео:
кодек:
розмір кадру: 1920х1080
бітрейт: 10500 кб/с

Аудіо # 1:
мова: українська
переклад: двоголосий закадровий Студія «1+1» (доріжка з VHS)
кодек: 5.1
бітрейт: 384 кб/с

Аудіо # 2:
мова: українська
переклад: багатоголосий закадровий Так Треба Продакшн на замовлення телекомпанії ICTV
кодек: 5.1
бітрейт: 384 кб/с

Аудіо # 3:
мова: українська
переклад: багатоголосий закадровий запис з К1
кодек: 5.1
бітрейт: 384 кб/с

Аудіо # 4:
мова: українська
переклад: двоголосий закадровий запис з Нового каналу
кодек: 5.1
бітрейт: 384 кб/с

Аудіо # 5:
мова: англійська
переклад: оригінал
кодек: 5.1
бітрейт: 640 кб/с

Субтитри:
мова: українська
тип: програмні (м'які)
формат: *.srt
джерело: субтитри на 99% набрані з тексту Студії 1+1, текст набирав: w2958l

Субтитри:
мова: англійська
тип: програмні (м'які)
формат: *.srt
Скріншоти









Подяки:
За доріжку з VHS від студії 1+1 Tanat13,
за запис інших доріжок xSlim і karvai,
за синхронізацію всіх українських доріжок _oles

Особиста оцінка: 10 - без зайвих вагань рекомендую всім!


 Трекер:    Зареєстрований   

Завантажити / скачати фільм українською



відео для новачків



 Зареєстрований:   2014-02-13 16:40
 Розмір:   12.92 GB 
 Оцінка фільму:   9.5/10 (Голосів: 13)
   
bot 
робот


З нами з: 30.09.07
Востаннє: 26.05.05
Повідомлень: 15975

2014-02-14 12:06  
Тему перенесено з Фільми до форуму Фільми в HD


bea-r

ratbol 
Модератор HD


З нами з: 03.02.09
Востаннє: 01.12.16
Повідомлень: 1088

2014-02-14 16:51  
Скріншоти мають бути в форматі png.
bea-r 
Новенький


З нами з: 21.01.14
Востаннє: 22.06.16
Повідомлень: 2

2014-02-14 21:37  
ratbol написано:
Скріншоти мають бути в форматі png.

Виправив

Косячок справжній 
VIP


З нами з: 29.02.12
Востаннє: 01.12.16
Повідомлень: 655

2015-05-30 21:57  
Нуднувато, звісно, проте кінцівка і деякі миті фільму непогані. Ілюзія, солодкуваті мрії, які не втілити у житті через наші але....ось і життя людини.
shroud 
Частий відвідувач


З нами з: 06.07.11
Востаннє: 01.12.16
Повідомлень: 25

2016-02-04 01:51  
Фільм прекрасний.
Ваш часовий пояс: GMT + 2 Години

Нова тема   Відповісти