Завантажити та скачати торренти українською


Усе втрачено / All Is Lost (2013) 720p Ukr/Eng | Sub Eng/Spa

Нові коментарі

Нова тема   Відповісти
Автор Повідомлення
BOOGud 
VIP


З нами з: 06.03.12
Востаннє: 11.11.16
Повідомлень: 907

2014-02-12 23:02  
Усе втрачено / All Is Lost (2013) 720p Ukr/Eng | Sub Eng/Spa

Усе втрачено / All Is Lost (2013) 720p Ukr/Eng | Sub Eng/Spa


інші постери
















Жанр: екшн, пригодницький, драма, фантастика
Країна: США



Кінокомпанія: Before The Door Pictures, Washington Square Films, Black Bear Pictures
Режисер: Джей Сі Чендор / J.C. Chandor
Актори: Роберт Редфорд / Robert Redford

Сюжет:
Високий засмаглий чоловік подорожує на розкішній яхті в теплих водах Індійського океану, але ідилічна картина міняється одразу, і герой опиняється наодинці з безоднею. Заради тих, хто залишився на березі, він вступить в сутичку з лютою стихією...


Тривалість: 01:45:44
Якість:
Відео:
кодек:
розмір кадру: 1 280 х 534
бітрейт: 5266 кб/с

Аудіо # 1:
мова: українська
переклад: одноголосий закадровий
кодек: 2.0
бітрейт: 192 кб/с
Переклад та озвучення: Ерік Кулик [NewSchoolSound]

Аудіо # 2:
мова: англійська
переклад: оригінал
кодек: -HD 5.1
бітрейт: 1 509 кб/с

Аудіо # 3:
мова: англійська
переклад: коментарі (з режисером Джей Сі Чендором та продюсерами)
кодек: 2.0
бітрейт: 192 кб/с

Субтитри:
мова: англійська
тип: пререндерні
формат: *.pgs

Субтитри:
мова: іспанська
тип: пререндерні
формат: *.pgs
MediaInfo
General
Unique ID : 191787418724585330545040525592491810176 (0x9048E9CBEBD680DFB1EEEBC7A7ED5D80)
Complete name : I:\!!!720p\!2160\All.Is.Lost.2013.720p.BluRay.[PublicHD.NewSchoolSound][UKR.ENG].mkv
Format : Matroska
Format version : Version 4 / Version 2
File size : 5.19 GiB
Duration : 1h 45mn
Overall bit rate : 7 032 Kbps
Encoded date : UTC 2014-02-12 20:32:21
Writing application : mkvmerge v6.6.0 ('The Edge Of The In Between') built on Dec 1 2013 17:55:00
Writing library : libebml v1.3.0 + libmatroska v1.4.1

Video
ID : 1
Format : AVC
Format/Info : Advanced Video Codec
Format profile : [email protected]
Format settings, CABAC : Yes
Format settings, ReFrames : 12 frames
Codec ID : V_MPEG4/ISO/AVC
Duration : 1h 45mn
Width : 1 280 pixels
Height : 534 pixels
Display aspect ratio : 2.40:1
Frame rate mode : Constant
Frame rate : 23.976 fps
Color space : YUV
Chroma subsampling : 4:2:0
Bit depth : 8 bits
Scan type : Progressive
Title : VIDEO
Language : English
Default : Yes
Forced : No

Audio #1
ID : 2
Format : AC-3
Format/Info : Audio Coding 3
Mode extension : CM (complete main)
Format settings, Endianness : Big
Codec ID : A_AC3
Duration : 1h 45mn
Bit rate mode : Constant
Bit rate : 192 Kbps
Channel count : 2 channels
Channel positions : Front: L R
Sampling rate : 48.0 KHz
Bit depth : 16 bits
Compression mode : Lossy
Stream size : 145 MiB (3%)
Title : UKR(NSS)
Language : Ukrainian
Default : Yes
Forced : No

Audio #2
ID : 3
Format :
Format/Info : Digital Theater Systems
Mode : 16
Format settings, Endianness : Big
Codec ID : A_DTS
Duration : 1h 45mn
Bit rate mode : Constant
Bit rate : 1 509 Kbps
Channel count : 6 channels
Channel positions : Front: L C R, Side: L R, LFE
Sampling rate : 48.0 KHz
Bit depth : 24 bits
Compression mode : Lossy
Stream size : 1.11 GiB (21%)
Language : English
Default : No
Forced : No

Audio #3
ID : 4
Format :
Format/Info : Advanced Audio Codec
Format profile : LC
Codec ID : A_AAC
Duration : 1h 45mn
Channel count : 2 channels
Channel positions : Front: L R
Sampling rate : 48.0 KHz
Compression mode : Lossy
Delay relative to video : 9ms
Language : English
Default : No
Forced : No

Text #1
ID : 5
Format : PGS
Muxing mode : zlib
Codec ID : S_HDMV/PGS
Codec ID/Info : The same subtitle format used on BDs/HD-DVDs
Language : English
Default : No
Forced : No

Text #2
ID : 6
Format : PGS
Muxing mode : zlib
Codec ID : S_HDMV/PGS
Codec ID/Info : The same subtitle format used on BDs/HD-DVDs
Language : English
Default : No
Forced : No

Text #3
ID : 7
Format : PGS
Muxing mode : zlib
Codec ID : S_HDMV/PGS
Codec ID/Info : The same subtitle format used on BDs/HD-DVDs
Language : Spanish
Default : No
Forced : No

Menu
00:00:00.000 : en:00:00:00.000
00:06:14.916 : en:00:06:14.916
00:12:36.673 : en:00:12:36.673
00:18:26.647 : en:00:18:26.647
00:25:21.061 : en:00:25:21.061
00:30:09.266 : en:00:30:09.266
00:36:16.633 : en:00:36:16.633
00:42:42.226 : en:00:42:42.226
00:48:24.193 : en:00:48:24.193
00:53:59.486 : en:00:53:59.486
01:00:03.099 : en:01:00:03.099
01:07:18.534 : en:01:07:18.534
01:12:05.571 : en:01:12:05.571
01:18:12.563 : en:01:18:12.563
01:24:27.854 : en:01:24:27.854
01:38:45.002 : en:01:38:45.002
Скріншоти


































Джерело: PublicHD.se & NewSchoolSound
Особиста оцінка: 0 - не дивився


Авторський реліз (завантажувати можна без реєстрації)
 Трекер:    Зареєстрований   

Завантажити / скачати фільм українською



відео для новачків



 Зареєстрований:   2014-02-12 23:08
 Розмір:   5.19 GB 
 Оцінка фільму:   8/10 (Голосів: 13)
   
Інші релізи
bot 
робот


З нами з: 30.09.07
Востаннє: 26.05.05
Повідомлень: 15992

2014-02-12 23:02  
Тему перенесено з Фільми в HD до форуму Анонси релізів


BOOGud

bot 
робот


З нами з: 30.09.07
Востаннє: 26.05.05
Повідомлень: 15992

2014-02-12 23:08  
Тему перенесено з Анонси релізів до форуму Фільми в HD


BOOGud

famous37 
Відео Гуртом - фільмокрай
Відео Гуртом - фільмокрай


З нами з: 16.11.08
Востаннє: 05.12.16
Повідомлень: 545

2016-02-06 22:36  
Український постер

sollo995 
Новенький


З нами з: 20.02.11
Востаннє: 04.12.16
Повідомлень: 8

2016-02-27 22:23  
famous37
не зовсім Український Wide grin

Ваш часовий пояс: GMT + 2 Години

Нова тема   Відповісти