Завантажити та скачати торренти українською


Олдбой / Oldboy (2013) 720p Ukr/Eng

Нові коментарі

Нова тема   Відповісти
Автор Повідомлення
Sando7 
Відео Гуртом - запис з ТБ
Відео Гуртом - запис з ТБ


З нами з: 04.05.09
Востаннє: 06.12.16
Повідомлень: 840

2014-02-11 21:03  
Олдбой / Oldboy (2013) 720p Ukr/Eng




Альтернативний постер


Жанр: екшн, драма, містика, трилер
Країна: США



Кінокомпанія: Good Universe, Vertigo Entertainment, 40 Acres & A Mule Filmworks
Режисер: Спайк Лі / Spike Lee
Актори: Джош Бролін / Josh Brolin, Елізабет Олсен / Elizabeth Olsen, Шарлто Коплі / Sharlto Copley, Семюель Л. Джексон / Samuel L. Jackson, Ганна Сімон / Hannah Simone, Ганна Вер / Hannah Ware, Майкл Імперіолі / Michael Imperioli та інші

Сюжет:
Фільм розповідає про рекламника, якого хтось викрав і 20 років протримав в одиночній камері, ніяк не пояснюючи своїх мотивів. Настільки ж несподівано отримавши одного разу свободу, він вирішує розшукати того, хто організував його викрадення, і виявляє, що невідомий злодій продовжує мучити його загадками. Погоня за помстою приводить його до юної соціальної працівниці і якоїсь людини, в руках якої нібито знаходиться ключ до його порятунку.


Тривалість: 01:43:46
Якість: 720p
Відео:
кодек:
розмір кадру: 1280 х 536
бітрейт: 4516 кб/с

Аудіо # 1:
мова: українська
переклад: багатоголосий закадровий
кодек: 2.0
бітрейт: 192 кб/с

Аудіо # 2:
мова: англійська
переклад: оригінал
кодек: 5.1
бітрейт: 640 кб/с

Субтитри:
мова: англійська
тип: програмні (м'які)
формат: *.srt
MediaInfo

Complete name : C:\Users\sando7\Desktop\Reliz\Oldboy (2013) 720p [Ukr.Eng] [Hurtom].mkv
Format : Matroska
Format version : Version 1
File size : 3.88 GiB
Duration : 1h 43mn
Overall bit rate : 5 349 Kbps
Encoded date : UTC 2014-02-16 12:53:48
Writing application : mkvmerge v2.4.1 ('Use Me') built on Dec 5 2008 18:30:05
Writing library : libebml v0.7.7 + libmatroska v0.8.1

Video
ID : 1
Format : AVC
Format/Info : Advanced Video Codec
Format profile : [email protected]
Format settings, CABAC : Yes
Format settings, ReFrames : 5 frames
Codec ID : V_MPEG4/ISO/AVC
Duration : 1h 43mn
Bit rate : 4 516 Kbps
Width : 1 280 pixels
Height : 536 pixels
Display aspect ratio : 2.40:1
Frame rate mode : Constant
Frame rate : 23.976 fps
Color space : YUV
Chroma subsampling : 4:2:0
Bit depth : 8 bits
Scan type : Progressive
Bits/(Pixel*Frame) : 0.275
Stream size : 3.20 GiB (82%)
Title :
Writing library : core 140 r2377 1ca7bb9
Encoding settings : cabac=1 / ref=5 / deblock=1:0:0 / analyse=0x3:0x133 / me=umh / subme=7 / psy=1 / psy_rd=1.00:0.00 / mixed_ref=1 / me_range=16 / chroma_me=1 / trellis=1 / 8x8dct=1 / cqm=0 / deadzone=21,11 / fast_pskip=0 / chroma_qp_offset=-2 / threads=12 / lookahead_threads=2 / sliced_threads=0 / nr=0 / decimate=1 / interlaced=0 / bluray_compat=0 / constrained_intra=0 / bframes=3 / b_pyramid=2 / b_adapt=1 / b_bias=0 / direct=1 / weightb=1 / open_gop=0 / weightp=2 / keyint=250 / keyint_min=23 / scenecut=40 / intra_refresh=0 / rc_lookahead=40 / rc=2pass / mbtree=1 / bitrate=4516 / ratetol=1.0 / qcomp=0.60 / qpmin=0 / qpmax=69 / qpstep=4 / cplxblur=20.0 / qblur=0.5 / ip_ratio=1.40 / aq=1:1.00
Language : English
Default : Yes
Forced : No

Audio #1
ID : 2
Format : AC-3
Format/Info : Audio Coding 3
Mode extension : CM (complete main)
Format settings, Endianness : Big
Codec ID : A_AC3
Duration : 1h 43mn
Bit rate mode : Constant
Bit rate : 192 Kbps
Channel count : 2 channels
Channel positions : Front: L R
Sampling rate : 48.0 KHz
Bit depth : 16 bits
Compression mode : Lossy
Stream size : 143 MiB (4%)
Title : Ukr_Line
Language : Ukrainian
Default : Yes
Forced : No

Audio #2
ID : 3
Format : AC-3
Format/Info : Audio Coding 3
Mode extension : CM (complete main)
Format settings, Endianness : Big
Codec ID : A_AC3
Duration : 1h 43mn
Bit rate mode : Constant
Bit rate : 640 Kbps
Channel count : 6 channels
Channel positions : Front: L C R, Side: L R, LFE
Sampling rate : 48.0 KHz
Bit depth : 16 bits
Compression mode : Lossy
Stream size : 475 MiB (12%)
Language : English
Default : No
Forced : No

Menu
00:00:00.000 : en:00:00:00.000
00:04:45.118 : en:00:04:45.118
00:10:13.988 : en:00:10:13.988
00:16:15.600 : en:00:16:15.600
00:22:18.712 : en:00:22:18.712
00:30:30.162 : en:00:30:30.162
00:34:31.111 : en:00:34:31.111
00:43:42.370 : en:00:43:42.370
00:52:15.424 : en:00:52:15.424
00:56:28.677 : en:00:56:28.677
01:04:09.512 : en:01:04:09.512
01:10:00.488 : en:01:10:00.488
01:17:15.047 : en:01:17:15.047
01:22:37.411 : en:01:22:37.411
01:29:46.881 : en:01:29:46.881
01:37:15.580 : en:01:37:15.580


Джерело:
Особиста оцінка: 0 - не дивився


 Трекер:    Зареєстрований   

Завантажити / скачати фільм українською



відео для новачків



 Зареєстрований:   2014-02-16 15:15
 Розмір:   3.88 GB 
 Оцінка фільму:   8.9/10 (Голосів: 16)
   
Інші релізи
   Олдбой / Oldboy (2013) 1080p Ukr/Eng | Sub Eng 11FrYkT  2 / 0   11.02 GB   2014-02-16 15:37 
   Олдбой / Oldboy (2013) patriot2305  5 / 0   1.45 GB   2014-02-16 14:43 
   Олдбой / Oldboy (2013) AVC patriot2305  1 / 0   1.95 GB   2014-02-16 00:09 
bot 
робот


З нами з: 30.09.07
Востаннє: 26.05.05
Повідомлень: 16019

2014-02-11 21:09  
Тему перенесено з Пісочниця до форуму Анонси релізів


patriot2305

Virake 
Localize Team
Localize Team


З нами з: 07.07.09
Востаннє: 06.12.16
Повідомлень: 4062

2014-02-13 11:09  
щось мені підказує, що це вже зовсім "не те", що оригінал.
Vert1go 
Частий відвідувач


З нами з: 03.09.13
Востаннє: 05.12.16
Повідомлень: 34

2014-02-13 12:48  
це абсолютно не те.з оригиналу вирізали деякі деталі та зняли цей фільм,зганьбили чудовий сценарій. для американців піде. не раджу дивитися цю версію фільму,тому це кіно не викликає ніяких ємоцій та співчуття як оригінал.
bot 
робот


З нами з: 30.09.07
Востаннє: 26.05.05
Повідомлень: 16019

2014-02-16 15:15  
Тему перенесено з Анонси релізів до форуму Фільми в HD


Sando7

Seriy100293 
VIP


З нами з: 17.08.11
Востаннє: 04.09.16
Повідомлень: 307

2014-02-16 15:35  
Справді дубльований переклад?
І скажіть будь-ласка, про який оригінал ви говорите?

Sando7 
Відео Гуртом - запис з ТБ
Відео Гуртом - запис з ТБ


З нами з: 04.05.09
Востаннє: 06.12.16
Повідомлень: 840

2014-02-16 15:43  
Seriy100293 написано:
переклад: багатоголосий закадровий (псевдодубляж)

таки так ..на жаль лише переклад: багатоголосий закадровий (псевдодубляж) хоча ні ..з зазіханням на псевдодубляж Wide grin

jeans2882 
Свій


З нами з: 05.06.12
Востаннє: 06.12.16
Повідомлень: 73

2014-04-07 23:34  
Vert1go
Повністю згоден.

Ваш часовий пояс: GMT + 2 Години

Нова тема   Відповісти