Завантажити та скачати торренти українською


Metallica: Крізь неможливе / Metallica Through the Never (2013) Ukr/Eng | Sub Ukr/Eng

Нові коментарі

Нова тема   Відповісти
Автор Повідомлення
BOOGud 
VIP


З нами з: 06.03.12
Востаннє: 11.11.16
Повідомлень: 907

2014-02-09 23:16  
Metallica: Крізь неможливе / Metallica Through the Never (2013) Ukr/Eng | Sub Ukr/Eng

Metallica: Крізь неможливе / Metallica Through the Never (2013) Ukr/Eng | Sub Ukr/Eng


оригінал постер

Metallica: Крізь неможливе / Metallica Through the Never (2013) Ukr/Eng | Sub Ukr/Eng


Жанр: екш,музичний, пригодницький, мюзикл
Країна: США



Режисер: Німрод Антал
Актори: Дейн ДіХаан, Кірк Геммет, Джеймс Гетфілд, Роберт Трухільо, Ларс Ульріх

Сюжет:
Учасник технічної команди групи Metallica отримує завдання - привезти сумку, вміст якої необхідний групі для виступу. Супроводжуючи таємничу сумку, він потрапляє в неймовірні халепи. Картина являє собою суміш ігрового фільму і концерту.
Розширений опис
Фільм «Metallica: Крізь неможливе» – це гібрид, сплав ігрового кіно та живого концерту групи Metallica. Основна матерія фільму – хаос і божевілля. Головний персонаж – Тріп ( Дейн ДеХаан ) - збірний образ технічної служби, інженерних військ групи, без яких шоу було б неможливим. Сюжетна лінія – Тріп біжить, і бігти йому треба швидко. Він учасник технічної команди і його завдання – привезти сумку, яка необхідна для виступу групи Metallica. Попереду неймовірні складнощі, повстанці, поліція, а також шум арени, ревіння залу і божевільні чари групи Metallica на сцені.

Назва фільму походить від пісні Through the Never з альбому Metallica. Цікаво, що сценарій займає тільки 15 сторінок, замість звичайних 120. Творці обіцяють вразити глядачів піротехнічними ефектами. Крім того, унікальна сама зйомка живих концертів групи у Ванкувері (Канада) – використовувалися до 24 камер одночасно. Зображення будується на принципах сучасної 3D-фотографії. Фільм повністю адаптований для показу у форматі IMAX 3D. Для цього використовувалася технологія DMR ( Digital Media Remastering). Це означає, що на нас чекає величезне, кришталево-чисте зображення під наймогутніший акомпанемент групи Metallica.

Режисер фільму – Німрод Антал, відомий фільмами «Хижаки» і «Вакансія на жертву». Він же отримав Приз молодіжного журі на Каннському кінофестивалі за сюрреалістично-містичну драму «Контроль» . Ларс Ульріх і Роберт Трухільо повідомили, що при створенні фільму їх надихали рок-опера британської групи The Who «Томмі», «Стіна» Pink Floyd'а, фільм-концерт без глядачів «Пінк Флойд: Концерт у Помпеї», документальний фільм Мартіна Скорсезе «Останній вальс».


Тривалість: 01:32:45
Якість:
Відео:
кодек:
розмір кадру: 720 x 304
бітрейт: 1 657 кб/с

Аудіо # 1:
мова: українська
переклад: багатоголосий закадровий | UAVoice
кодек: 5.1
бітрейт: 448 кб/с

Переклад : Дмитро Урсуляк
Озвучення: Дмитро Роєцький, Дмитро Урсуляк, Леонід Статівка
Монтаж та робота зі звуком:Дмитро Урсуляк (BOOGud)
Об'ємний звук(5.1): BOOGud

Аудіо # 2:
мова: англійська
переклад: оригінал
кодек: 5.1
бітрейт: 448 кб/с

Субтитри:
мова: українська | BOOGud
тип: програмні (м'які)
формат: *.srt

Субтитри:
мова: англійська
тип: програмні (м'які)
формат: *.srt
MediaInfo


General
Complete name : H:\!!!720\!2160\Metallica.Through.the.Never.2013..Ukr.Eng.UAVoice.avi
Format : AVI
Format/Info : Audio Video Interleave
File size : 1.66 GiB
Duration : 1h 32mn
Overall bit rate : 2 567 Kbps
Writing application : VirtualDubMod 1.5.10.2 (build 2540/release)
Writing library : VirtualDubMod build 2540/release

Video
ID : 0
Format : MPEG-4 Visual
Format profile : Advanced [email protected]
Format settings, BVOP : 1
Format settings, QPel : No
Format settings, GMC : No warppoints
Format settings, Matrix : Default (MPEG)
Codec ID :
Codec ID/Hint :
Duration : 1h 32mn
Bit rate : 1 657 Kbps
Width : 720 pixels
Height : 304 pixels
Display aspect ratio : 2.35:1
Frame rate : 23.976 fps
Color space : YUV
Chroma subsampling : 4:2:0
Bit depth : 8 bits
Scan type : Progressive
Compression mode : Lossy
Bits/(Pixel*Frame) : 0.316
Stream size : 1.07 GiB (65%)
Writing library : 1.3.0.dev55

Audio #1
ID : 1
Format : AC-3
Format/Info : Audio Coding 3
Mode extension : CM (complete main)
Format settings, Endianness : Big
Codec ID : 2000
Duration : 1h 32mn
Bit rate mode : Constant
Bit rate : 448 Kbps
Channel count : 6 channels
Channel positions : Front: L C R, Side: L R, LFE
Sampling rate : 48.0 KHz
Bit depth : 16 bits
Compression mode : Lossy
Stream size : 297 MiB (17%)
Alignment : Split accross interleaves
Interleave, duration : 42 ms (1.00 video frame)
Interleave, preload duration : 500 ms

Audio #2
ID : 2
Format : AC-3
Format/Info : Audio Coding 3
Mode extension : CM (complete main)
Format settings, Endianness : Big
Codec ID : 2000
Duration : 1h 32mn
Bit rate mode : Constant
Bit rate : 448 Kbps
Channel count : 6 channels
Channel positions : Front: L C R, Side: L R, LFE
Sampling rate : 48.0 KHz
Bit depth : 16 bits
Compression mode : Lossy
Stream size : 297 MiB (17%)
Alignment : Split accross interleaves
Interleave, duration : 42 ms (1.00 video frame)
Interleave, preload duration : 500 ms
Відбитки



























































осьо тута - гарне HD720p


Джерело: uavoice.com & ua-torrent.net & PublicHD.se
Особиста оцінка: 10 - без зайвих вагань рекомендую всім!


Авторський реліз (завантажувати можна без реєстрації)
 Трекер:    Зареєстрований   

Завантажити / скачати фільм українською



відео для новачків



 Зареєстрований:   2014-02-09 23:22
 Розмір:   1.66 GB 
 Оцінка фільму:   9.1/10 (Голосів: 54)
   
bot 
робот


З нами з: 30.09.07
Востаннє: 26.05.05
Повідомлень: 16030

2014-02-09 23:22  
Тему перенесено з Анонси релізів до форуму Фільми


BOOGud

famous37 
Відео Гуртом - фільмокрай
Відео Гуртом - фільмокрай


З нами з: 16.11.08
Востаннє: 08.12.16
Повідомлень: 549

2014-02-09 23:41  
Дайте, будь ласка, доріжку окремо. Дякую=)
BOOGud 
VIP


З нами з: 06.03.12
Востаннє: 11.11.16
Повідомлень: 907

2014-02-09 23:51  
famous37 написано:
Дайте, будь ласка, доріжку окремо. Дякую=)


осьо:
укр доріжка 448

sirkon10 
Новенький


З нами з: 13.05.12
Востаннє: 07.12.16
Повідомлень: 23

2014-02-10 00:14  
Вау!!! Супер!!!
Раджу послухати його на вінілі - це варте того !!!

famous37 
Відео Гуртом - фільмокрай
Відео Гуртом - фільмокрай


З нами з: 16.11.08
Востаннє: 08.12.16
Повідомлень: 549

2014-02-10 18:07  
BOOGud, зробив з цією доріжкою "Metallica: Крізь неможливе" у форматі 3D http://toloka.to/t53854
Sigurd 
Свій


З нами з: 20.01.09
Востаннє: 08.12.16
Повідомлень: 124

2014-02-12 23:20  
А що то за псевдо-козак на скріні?)
munipet 
Поважний учасник


З нами з: 14.04.11
Востаннє: 31.07.16
Повідомлень: 227

2014-02-13 03:17  
що за тупізна нема слів
eXteSy- 
VIP


З нами з: 06.04.09
Востаннє: 08.12.16
Повідомлень: 1454

2014-02-15 14:33  
Класний фільм-концерт, але розрахований виключно на фанатів Металліки.
Крім того, бажане непогане знання англійської мови, оскільки події на екрані містять алюзії на тексти пісень, які в той момент звучать.

POMEO 
Відео Гуртом - запис з ТБ
Відео Гуртом - запис з ТБ


З нами з: 01.07.08
Востаннє: 08.12.16
Повідомлень: 785

2014-02-16 22:35  
eXteSy- написано:
виключно на фанатів Металліки

НЕправда! Ходив з другом в ІМАХ, але ні я не він не фанати Металіки, ми просто слухаємо метал)
Ну і судячи по людям, які були в залі - звичайні любителі гарної якості як картинки так і звуку. І це було варте того!

Maters 
VIP


З нами з: 27.03.12
Востаннє: 07.12.16
Повідомлень: 1162

2015-02-18 21:19  
Музика просто супер, надзвичайно сподобалось те, як фанатично музиканти ставляться до того що самі творять, концерт дуже круто показали із усіх сторін, найдрібніші деталі, ну просто ВАУ.
А от історія того чувачка, що містом бігав, хаос, повішені на стовпах і т. д., краще б не бачив. Споганило все враження(

Ваш часовий пояс: GMT + 2 Години

Нова тема   Відповісти