Завантажити та скачати торренти українською


Metallica: Крізь неможливе / Metallica Through the Never (2013) 720p Ukr/Eng | Sub Ukr/Eng

Нові коментарі

Нова тема   Відповісти
Автор Повідомлення
BOOGud 
VIP


З нами з: 06.03.12
Востаннє: 11.11.16
Повідомлень: 907

2014-02-09 22:22  
Metallica: Крізь неможливе / Metallica Through the Never (2013) 720p Ukr/Eng | Sub Ukr/Eng

Metallica: Крізь неможливе / Metallica Through the Never (2013) 720p Ukr/Eng | Sub Ukr/Eng

укр постер

Metallica: Крізь неможливе / Metallica Through the Never (2013) 720p Ukr/Eng | Sub Ukr/Eng


Жанр: екш,музичний, пригодницький, мюзикл
Країна: США



Режисер: Німрод Антал
Актори: Дейн ДіХаан, Кірк Геммет, Джеймс Гетфілд, Роберт Трухільо, Ларс Ульріх

Сюжет:
Учасник технічної команди групи Metallica отримує завдання - привезти сумку, вміст якої необхідний групі для виступу. Супроводжуючи таємничу сумку, він потрапляє в неймовірні халепи. Картина являє собою суміш ігрового фільму і концерту.
Розширений опис
Фільм «Metallica: Крізь неможливе» – це гібрид, сплав ігрового кіно та живого концерту групи Metallica. Основна матерія фільму – хаос і божевілля. Головний персонаж – Тріп ( Дейн ДеХаан ) - збірний образ технічної служби, інженерних військ групи, без яких шоу було б неможливим. Сюжетна лінія – Тріп біжить, і бігти йому треба швидко. Він учасник технічної команди і його завдання – привезти сумку, яка необхідна для виступу групи Metallica. Попереду неймовірні складнощі, повстанці, поліція, а також шум арени, ревіння залу і божевільні чари групи Metallica на сцені.

Назва фільму походить від пісні Through the Never з альбому Metallica. Цікаво, що сценарій займає тільки 15 сторінок, замість звичайних 120. Творці обіцяють вразити глядачів піротехнічними ефектами. Крім того, унікальна сама зйомка живих концертів групи у Ванкувері (Канада) – використовувалися до 24 камер одночасно. Зображення будується на принципах сучасної 3D-фотографії. Фільм повністю адаптований для показу у форматі IMAX 3D. Для цього використовувалася технологія DMR ( Digital Media Remastering). Це означає, що на нас чекає величезне, кришталево-чисте зображення під наймогутніший акомпанемент групи Metallica.

Режисер фільму – Німрод Антал, відомий фільмами «Хижаки» і «Вакансія на жертву». Він же отримав Приз молодіжного журі на Каннському кінофестивалі за сюрреалістично-містичну драму «Контроль» . Ларс Ульріх і Роберт Трухільо повідомили, що при створенні фільму їх надихали рок-опера британської групи The Who «Томмі», «Стіна» Pink Floyd'а, фільм-концерт без глядачів «Пінк Флойд: Концерт у Помпеї», документальний фільм Мартіна Скорсезе «Останній вальс».


Тривалість: 01:32:45
Якість:
Відео:
кодек:
розмір кадру: 1 280 х 534
бітрейт: 5 261 кб/с

Аудіо # 1:
мова: українська
переклад: багатоголосий закадровий | UAVoice
кодек: 5.1
бітрейт: 640 кб/с

Переклад : Дмитро Урсуляк
Озвучення: Дмитро Роєцький, Дмитро Урсуляк, Леонід Статівка
Монтаж та робота зі звуком:Дмитро Урсуляк (BOOGud)
Об'ємний звук(5.1): BOOGud

Аудіо # 2:
мова: англійська
переклад: оригінал
кодек: 5.1
бітрейт: 1 509 кб/с

Субтитри:
мова: українська | BOOGud
тип: програмні (м'які)
формат: *.srt

Субтитри:
мова: англійська
тип: програмні (м'які)
формат: *.srt
MediaInfo


General
Unique ID : 170444430482486335030141714040835046212 (0x803A673B8652FD2D8E5AEA633EC07B44)
Complete name : H:\!!!720\!2160\Metallica.Through.The.Never.2013.720p.BluRay.UKR.ENG.UAVoice.mkv
Format : Matroska
Format version : Version 4 / Version 2
File size : 4.91 GiB
Duration : 1h 32mn
Overall bit rate : 7 578 Kbps
Movie name : Metallica.Through.The.Never.3D.2013.1080p
Encoded date : UTC 2014-02-09 20:16:23
Writing application : mkvmerge v6.6.0 ('The Edge Of The In Between') built on Dec 1 2013 17:55:00
Writing library : libebml v1.3.0 + libmatroska v1.4.1

Video
ID : 1
Format : AVC
Format/Info : Advanced Video Codec
Format profile : [email protected]
Format settings, CABAC : Yes
Format settings, ReFrames : 5 frames
Codec ID : V_MPEG4/ISO/AVC
Duration : 1h 32mn
Bit rate : 5 278 Kbps
Width : 1 280 pixels
Height : 534 pixels
Display aspect ratio : 2.40:1
Frame rate mode : Constant
Frame rate : 23.976 fps
Color space : YUV
Chroma subsampling : 4:2:0
Bit depth : 8 bits
Scan type : Progressive
Bits/(Pixel*Frame) : 0.322
Stream size : 3.42 GiB (70%)
Title : VIDEO
Language : English
Default : Yes
Forced : No

Audio #1
ID : 2
Format : AC-3
Format/Info : Audio Coding 3
Mode extension : CM (complete main)
Format settings, Endianness : Big
Codec ID : A_AC3
Duration : 1h 32mn
Bit rate mode : Constant
Bit rate : 640 Kbps
Channel count : 6 channels
Channel positions : Front: L C R, Side: L R, LFE
Sampling rate : 48.0 KHz
Bit depth : 16 bits
Compression mode : Lossy
Stream size : 425 MiB (8%)
Title : UKR5.1[UAVoice]
Language : Ukrainian
Default : Yes
Forced : No

Audio #2
ID : 3
Format :
Format/Info : Digital Theater Systems
Mode : 16
Format settings, Endianness : Big
Codec ID : A_DTS
Duration : 1h 32mn
Bit rate mode : Constant
Bit rate : 1 509 Kbps
Channel count : 6 channels
Channel positions : Front: L C R, Side: L R, LFE
Sampling rate : 48.0 KHz
Bit depth : 24 bits
Compression mode : Lossy
Stream size : 1 001 MiB (20%)
Title : 5.1 Ch
Language : English
Default : No
Forced : No

Text #1
ID : 4
Format : UTF-8
Codec ID : S_TEXT/UTF8
Codec ID/Info : UTF-8 Plain Text
Title : UKRsub[BOOGud](UAVoice)
Language : Ukrainian
Default : No
Forced : No

Text #2
ID : 5
Format : UTF-8
Codec ID : S_TEXT/UTF8
Codec ID/Info : UTF-8 Plain Text
Title : ENGsub
Language : English
Default : No
Forced : No

Menu
00:00:00.000 : en:00:00:00.000
00:03:48.228 : en:00:03:48.228
00:05:17.317 : en:00:05:17.317
00:10:56.155 : en:00:10:56.155
00:15:01.359 : en:00:15:01.359
00:19:34.965 : en:00:19:34.965
00:25:41.498 : en:00:25:41.498
00:34:43.957 : en:00:34:43.957
00:39:51.931 : en:00:39:51.931
00:41:25.274 : en:00:41:25.274
00:47:09.076 : en:00:47:09.076
00:55:25.697 : en:00:55:25.697
01:03:46.239 : en:01:03:46.239
01:07:02.060 : en:01:07:02.060
01:12:45.486 : en:01:12:45.486
01:19:27.429 : en:01:19:27.429
01:24:26.937 : en:01:24:26.937
Відбитки







































































Джерело: uavoice.com & ua-torrent.net & PublicHD.se
Особиста оцінка: 10 - без зайвих вагань рекомендую всім!


Авторський реліз (завантажувати можна без реєстрації)
 Трекер:    Зареєстрований   

Завантажити / скачати фільм українською



відео для новачків



 Зареєстрований:   2014-02-09 22:33
 Розмір:   4.91 GB 
 Оцінка фільму:   9.7/10 (Голосів: 34)
   
bot 
робот


З нами з: 30.09.07
Востаннє: 26.05.05
Повідомлень: 15985

2014-02-09 22:33  
Тему перенесено з Анонси релізів до форуму Фільми в HD


BOOGud

фокс малдер 
Новенький


З нами з: 10.01.14
Востаннє: 25.08.14
Повідомлень: 6

2014-02-18 23:52  
З 9-го класу (зараз 22роки) MetallicA МІЙ УЛЮБЛЕНИЙ ГУРТ ВСІХ ЧАСІВ! Безкомпромісне звучання, актуальні тексти (мій улюблений SAD BUT TRUE), харизматичність та неповторність в одній обоймі!!!
Чекаю виходу нового альбому, Ларс в інтервью сказав можливо під кінець 2014 року!

Додано через 6 хвилин 42 секунди:

По можливості додам дискографію (студійні альбоми в 320)

Ваш часовий пояс: GMT + 2 Години

Нова тема   Відповісти