Завантажити та скачати торренти українською


DZIDZIO-Народження легенди (2013)

Нові коментарі

Нова тема   Відповісти
Автор Повідомлення
-_-B_E_N_D_E_R-_- 
Оцифрування книг Гуртом
Оцифрування книг Гуртом


З нами з: 09.01.14
Востаннє: 04.12.16
Повідомлень: 125

2014-02-06 14:43  
DZIDZIO-Народження легенди (2013)

DZIDZIO-Народження легенди (2013)


Жанр: анімація, біографічний, комедія
Країна: Україна, Новояворівськ

Кінокомпанія: Meison entertainment
Режисер: Дзідзьо
Актори: Дзідзьо, Лесик, Юлік, Мейсон, Надя.

Сюжет:
Як Дзідзьо став зіркою


Тривалість: 00:04:40
Якість:
Відео:
кодек: AVC
розмір кадру: 640 х 240
бітрейт: 394 кб/с

Аудіо:
мова: українська
переклад: оригінал
кодек:
бітрейт: 103 кб/с
MediaInfo
General
Complete name : D:\'Народження легенди' (мультик) - DZIDZIO.mp4
Format : MPEG-4
Format profile : Base Media / Version 2
Codec ID : mp42
File size : 16.4 MiB
Duration : 4mn 40s
Overall bit rate mode : Variable
Overall bit rate : 492 Kbps
Encoded date : UTC 2013-12-31 18:13:27
Tagged date : UTC 2013-12-31 18:13:27
gsst : 0
gstd : 280218
gssd : BADC21523HH1391689021276274
gshh : r3---sn-3c27ln7l.googlevideo.com

Video
ID : 1
Format : AVC
Format/Info : Advanced Video Codec
Format profile : [email protected]
Format settings, CABAC : No
Format settings, ReFrames : 1 frame
Codec ID : avc1
Codec ID/Info : Advanced Video Coding
Duration : 4mn 40s
Bit rate : 394 Kbps
Maximum bit rate : 1 685 Kbps
Width : 640 pixels
Height : 240 pixels
Display aspect ratio : 2.667
Frame rate mode : Constant
Frame rate : 30.000 fps
Color space : YUV
Chroma subsampling : 4:2:0
Bit depth : 8 bits
Scan type : Progressive
Bits/(Pixel*Frame) : 0.085
Stream size : 13.2 MiB (80%)
Tagged date : UTC 2013-12-31 18:13:28

Audio
ID : 2
Format :
Format/Info : Advanced Audio Codec
Format profile : LC
Codec ID : 40
Duration : 4mn 40s
Bit rate mode : Variable
Bit rate : 96.0 Kbps
Maximum bit rate : 103 Kbps
Channel(s) : 2 channels
Channel positions : Front: L R
Sampling rate : 44.1 KHz
Compression mode : Lossy
Stream size : 3.21 MiB (19%)
Title : IsoMedia File Produced by Google, 5-11-2011
Encoded date : UTC 2013-12-31 18:13:28
Tagged date : UTC 2013-12-31 18:13:28
Скріншоти






Джерело: &
Особиста оцінка: 10 - без зайвих вагань рекомендую всім!


Золотий реліз (завантажене не впливає на рейтинг)
 Трекер:    Зареєстрований   

Завантажити / скачати український мультфільм



відео для новачків



 Зареєстрований:   2014-02-06 14:43
 Розмір:   16 MB 
 Оцінка мультфільму:   8.4/10 (Голосів: 16)
   
YaWrangler 
Поважний учасник


З нами з: 29.07.12
Востаннє: 04.12.16
Повідомлень: 249

2014-02-06 19:05  
Цитата:
DZIDZIO-Народження легенди (2013) mp4

Оформіть правильно заголовок
Цитата:
Якість: mp4

mp4 це не якість...

Volovik 
VIP


З нами з: 21.02.10
Востаннє: 04.12.16
Повідомлень: 341

2014-02-10 20:26  
для дорослих?
Х-Хед 
VIP


З нами з: 06.05.12
Востаннє: 12.11.16
Повідомлень: 297

2014-02-12 13:05  
Єдиний неприємний момент коли Дзідзьо в дитинстві надуває жабу через соломинку, решта нормальне; малим можна показувати. 10 з мінусом, тому що поприбріхували. Rolleyes (4)
Ваш часовий пояс: GMT + 2 Години

Нова тема   Відповісти