Завантажити та скачати торренти українською


Вулиці у вогні / Вулиці вогню / Streets of Fire (1984) 720p 3xUkr/Eng

Нові коментарі

Нова тема   Відповісти
Автор Повідомлення
BOOGud 
VIP


З нами з: 06.03.12
Востаннє: 11.11.16
Повідомлень: 907

2014-02-04 21:24  
Вулиці у вогні / Вулиці вогню / Streets of Fire (1984) 720p 3xUkr/Eng

Вулиці у вогні / Вулиці вогню / Streets of Fire (1984) 720p 3xUkr/Eng


багацько інших постерів
















































Жанр: екшн, кримінальний, драма
Країна: США



Кінокомпанія: RKO Pictures, Universal Pictures
Режисер: Волтер Гілл (Walter Hill)
Актори: Майкл Паре (Michael Pare), Даян Лейн (Diane Lane), Рік Мораніс (Rick Moranis), Емі Мадіґан (Amy Madigan), Віллям Дефо (Willem Dafoe) та інші.

Сюжет:
Цей фільм ще називають рок-н-рольним бойовиком чи рок-н-рольною казкою, або ж міським вестерном. І всі ці умовні визначення мають під собою ґрунт. Картина славна і культова, свого часу достатньо новаторська... Про що йдеться? Рок-н-рольну співачку викрадає банда мотоциклістів. Її колишній хлопець повертається до міста і береться врятувати кохану від наруги. А дія точиться у досить дивному кінематографічному світі, що той перебуває ніби в міжчассі...


Тривалість: 01:33:53
Якість:
Відео:
кодек:
розмір кадру: 1 280 x 688
бітрейт: 6 022 кб/с

Аудіо # 1:
мова: українська
переклад: багатоголосий закадровий | ICTV
кодек: 2.0
бітрейт: 192 кб/с
на проміжку 01:19:45-01:29:29 вставка озвучки з каналу "Україна".
Аудіо # 2:
мова: українська
переклад: двоголосий закадровий | 1+1
кодек: 2.0
бітрейт: 192 кб/с

Аудіо # 3:
мова: українська
переклад: багатоголосий закадровий | "Так Треба Продакшн"
кодек: 2.0
бітрейт: 192 кб/с

Аудіо # 4:
мова: англійська
переклад: оригінал
кодек: 5.1
бітрейт: 640 кб/с

Джерело озвучення:

ICTV

1+1

"Так Треба Продакшн" на замовлення

Субтитри:
мова: англійська
тип: програмні (м'які)
формат: *.srt

Субтитри:
мова: французька
тип: програмні (м'які)
формат: *.srt



Streets of Fire - Nowhere Fast


MediaInfo
General
Unique ID : 186791001180689784107784371741162374844 (0x8C86A36474E44A90B079B2D3CDA286BC)
Complete name : I:\!!!720p\!2160\Streets.of.Fire.(1984).[3xUKR,ENG].HDDVDRip720p.mkv
Format : Matroska
Format version : Version 4 / Version 2
File size : 4.75 GiB
Duration : 1h 33mn
Overall bit rate : 7 240 Kbps
Encoded date : UTC 2014-02-04 18:44:04
Writing application : mkvmerge v6.6.0 ('The Edge Of The In Between') built on Dec 1 2013 17:55:00
Writing library : libebml v1.3.0 + libmatroska v1.4.1

Video
ID : 1
Format : AVC
Format/Info : Advanced Video Codec
Format profile : [email protected]
Format settings, CABAC : Yes
Format settings, ReFrames : 8 frames
Codec ID : V_MPEG4/ISO/AVC
Duration : 1h 33mn
Bit rate : 6 022 Kbps
Width : 1 280 pixels
Height : 688 pixels
Display aspect ratio : 1.85:1
Frame rate mode : Constant
Frame rate : 23.976 fps
Color space : YUV
Chroma subsampling : 4:2:0
Bit depth : 8 bits
Scan type : Progressive
Bits/(Pixel*Frame) : 0.285
Stream size : 3.86 GiB (81%)
Title : VIDEO
Writing library : core 55 svn-655
Encoding settings : cabac=1 / ref=5 / deblock=1:-3:-3 / analyse=0x3:0x133 / me=umh / subme=7 / brdo=0 / mixed_ref=1 / me_range=16 / chroma_me=1 / trellis=1 / 8x8dct=1 / cqm=2 / deadzone=21,11 / chroma_qp_offset=0 / threads=3 / nr=0 / decimate=1 / mbaff=0 / bframes=3 / b_pyramid=1 / b_adapt=1 / b_bias=0 / direct=1 / wpredb=1 / bime=1 / keyint=240 / keyint_min=24 / scenecut=40(pre) / rc=2pass / bitrate=6022 / ratetol=1.0 / rceq='blurCplx^(1-qComp)' / qcomp=0.60 / qpmin=10 / qpmax=51 / qpstep=4 / cplxblur=20.0 / qblur=0.5 / ip_ratio=1.40 / pb_ratio=1.30
Language : English
Default : Yes
Forced : No

Audio #1
ID : 2
Format : AC-3
Format/Info : Audio Coding 3
Mode extension : CM (complete main)
Format settings, Endianness : Big
Codec ID : A_AC3
Duration : 1h 33mn
Bit rate mode : Constant
Bit rate : 192 Kbps
Channel count : 2 channels
Channel positions : Front: L R
Sampling rate : 48.0 KHz
Bit depth : 16 bits
Compression mode : Lossy
Stream size : 129 MiB (3%)
Title : ICTV(2009)
Language : Ukrainian
Default : Yes
Forced : No

Audio #2
ID : 3
Format : AC-3
Format/Info : Audio Coding 3
Mode extension : CM (complete main)
Format settings, Endianness : Big
Codec ID : A_AC3
Duration : 1h 33mn
Bit rate mode : Constant
Bit rate : 192 Kbps
Channel count : 2 channels
Channel positions : Front: L R
Sampling rate : 48.0 KHz
Bit depth : 16 bits
Compression mode : Lossy
Stream size : 129 MiB (3%)
Title : 1+1(2007)
Language : Ukrainian
Default : No
Forced : No

Audio #3
ID : 4
Format : AC-3
Format/Info : Audio Coding 3
Mode extension : CM (complete main)
Format settings, Endianness : Big
Codec ID : A_AC3
Duration : 1h 33mn
Bit rate mode : Constant
Bit rate : 192 Kbps
Channel count : 2 channels
Channel positions : Front: L R
Sampling rate : 48.0 KHz
Bit depth : 16 bits
Compression mode : Lossy
Stream size : 129 MiB (3%)
Title : TTP(2012)
Language : Ukrainian
Default : No
Forced : No

Audio #4
ID : 5
Format : AC-3
Format/Info : Audio Coding 3
Mode extension : CM (complete main)
Format settings, Endianness : Big
Codec ID : A_AC3
Duration : 1h 33mn
Bit rate mode : Constant
Bit rate : 640 Kbps
Channel count : 6 channels
Channel positions : Front: L C R, Side: L R, LFE
Sampling rate : 48.0 KHz
Bit depth : 16 bits
Compression mode : Lossy
Stream size : 430 MiB (9%)
Title : [ENG]5.1
Language : English
Default : No
Forced : No

Text
ID : 6
Format : UTF-8
Codec ID : S_TEXT/UTF8
Codec ID/Info : UTF-8 Plain Text
Title : ENGsub
Language : English
Default : No
Forced : No
Скріншоти





























































































Подяка:


Пану ProgBassing за надану сиру доріжку №1.
пану Hulk1987 за надану сиру доріжку №2.
та пану karvai0 і пані olgaya за надану сиру доріжку №3.

HD зібрав BOOGud

Джерело: cinemageddon.net & toloka.to

Особиста оцінка: 10 - без зайвих вагань рекомендую всім!


Срібний реліз (на рейтинг впливає 50% завантаженого)
 Трекер:    Зареєстрований   

Завантажити / скачати фільм українською



відео для новачків



 Зареєстрований:   2014-02-04 22:33
 Розмір:   4.75 GB 
 Оцінка фільму:   9.5/10 (Голосів: 8)
   
pseudogiant 
VIP


З нами з: 24.08.12
Востаннє: 02.12.16
Повідомлень: 805

2014-02-04 21:47  
Дивився був цей фільм ще у відеосалоні. Ностальгія.
bot 
робот


З нами з: 30.09.07
Востаннє: 26.05.05
Повідомлень: 15967

2014-02-04 22:32  
Тему перенесено з Анонси релізів до форуму Фільми в HD


BOOGud

Mr Yuran 
Відео Гуртом - команда HD
Відео Гуртом - команда HD


З нами з: 15.11.11
Востаннє: 01.12.16
Повідомлень: 377

2014-02-04 23:28  
BOOGud
Не повіриш. Я щойно закінчив кодування цього фільму. Wide grin

BOOGud 
VIP


З нами з: 06.03.12
Востаннє: 11.11.16
Повідомлень: 907

2014-02-05 02:25  
Mr Yuran написано:
Не повіриш. Я щойно закінчив кодування цього фільму

ет блін! навіть подумати не міг що хтось таки візьмеься за нього, я ріпи був завантажив кілька місяців тому, ну й подумав зберу но українську хд-шку)
ну може у вас ріпи кращі вийшли, то викладіть і їх, я залюбки заберу

Mr Yuran 
Відео Гуртом - команда HD
Відео Гуртом - команда HD


З нами з: 15.11.11
Востаннє: 01.12.16
Повідомлень: 377

2014-02-06 00:37  
Я теж не думав, що хтось займеться цим фільмом. І також десь за місяць придивився це фільм.
Взагалі, що сталось те сталось. Нехай буде цей реліз.

waldi-hurtom 
VIP


З нами з: 07.10.12
Востаннє: 02.12.16
Повідомлень: 611

2014-02-07 01:14  
Golden Raspberry - що ще додати! 6 балів. Найкраще в цьому фільмі - музика кінця 70- початку 80-х, ностальгія. Happy
Ваш часовий пояс: GMT + 2 Години

Нова тема   Відповісти