Завантажити та скачати торренти українською


Ловець снів / Dreamcatcher (2003) 720p 2xUkr/Eng | sub Eng

Нові коментарі

Нова тема   Відповісти
Автор Повідомлення
NeetScrool 
Відео Гуртом - фільмокрай
Відео Гуртом - фільмокрай


З нами з: 10.01.13
Востаннє: 05.12.16
Повідомлень: 2214

2014-02-04 21:00  
Ловець снів / Dreamcatcher (2003) 720p 2xUkr/Eng | sub Eng

Ловець снів / Dreamcatcher (2003) 720p 2xUkr/Eng | sub Eng


Жанр: жахи, фантастика, фентезі, трилер
Країна: США, Австралія



Кінокомпанія: Castle Rock Entertainment, Village Roadshow Pictures, NPV Entertainment
Режисер: Лоуренс Кездан
Актори: Морган Фріман, Томас Джейн, Джейсон Лі, Даміан Льюіс, Тімоті Оліфант, Том Сайзмор, Донні Волберг, Майкі Хоулкамп, Ріс Томпсон, Джакомо Бессато

Сюжет:
Джонсі, Генрі, Піт і Бівер. Двадцять років тому вони були просто хлопчиськами, що мешкали в одному невеликому містечку штату Мен. Одного разу вони врятували хлопчика. Нагорода за порятунок дивакуватого хлопчини на ім'я Даддітс абсолютно несподівано прийшла до них у вигляді надприродних сил, що зв'язало всіх п'ятьох найміцнішими вузами братерства.
Але коли на щорічному полюванні друзі зібралися разом у лісовій хатині, то замість очікуваної теплої, веселої атмосфери над ними починає згущуватися абсолютне зло, що приносить загибель. Спочатку до них потрапляє незнайомець - мисливець, який і не підозрює що його організм уражений смертельною поганню. Попереду - найбільше протистояння жаху, що не має аналогів.


Тривалість: 02:13:43
Якість:
Відео:
кодек:
розмір кадру: 1280х718
бітрейт: ~4062 кб/с

Аудіо # 1:
мова: українська
переклад: багатоголосий закадровий
кодек: 2.0
бітрейт: 192 кб/с
Запис: servus12
Зведення: Sensetivity
Інформація про озвучення
Про озвучення від Студії «1+1»
Переклад: Тетяни Коробкової
Літературний редактор: Романна Мельниченко
Звукорежисер: Віктор Коляда
Режисер: Володимир Коваленко
Ролі озвучили: Андрій Твердак, Владислав Пупков, Інна Капінос і Андрій Бурлуцький
Аудіо # 2:
мова: українська
переклад: багатоголосий закадровий
кодек: 2.0
бітрейт: 192 кб/с
Запис: ratbol
Зведення: Sensetivity
Інформація про озвучення
Аудіо # 3:
мова: англійська
переклад: оригінал
кодек: 2.0
бітрейт: 150 кб/с

Джерело озвучення:
та

Субтитри:
мова: англійська
тип: програмні (м'які)
формат: *.srt
MediaInfo
General
Unique ID : 172342937779137424724389259968316164013 (0x81A80ADE7A773ADFB72EA2B07993C7AD)
Complete name : E:\RIP\Dreamcatcher (2003) [2xUkr.Eng] [Hurtom].mkv
Format : Matroska
Format version : Version 4 / Version 2
File size : 4.30 GiB
Duration : 2h 13mn
Overall bit rate : 4 605 Kbps
Movie name : Ловець снів / Dreamcatcher (2003) | Hurtom.com
Encoded date : UTC 2014-02-05 12:08:47
Writing application : mkvmerge v6.6.0 ('The Edge Of The In Between') built on Dec 1 2013 17:55:00
Writing library : libebml v1.3.0 + libmatroska v1.4.1
Attachment : Yes

Video
ID : 1
Format : AVC
Format/Info : Advanced Video Codec
Format profile : [email protected]
Format settings, CABAC : No
Format settings, ReFrames : 2 frames
Codec ID : V_MPEG4/ISO/AVC
Duration : 2h 13mn
Width : 1 280 pixels
Height : 718 pixels
Display aspect ratio : 16:9
Frame rate mode : Constant
Frame rate : 23.976 fps
Color space : YUV
Chroma subsampling : 4:2:0
Bit depth : 8 bits
Scan type : Progressive
Title :
Language : English
Default : Yes
Forced : No
Color primaries : BT.709
Transfer characteristics : BT.709
Matrix coefficients : BT.709

Audio #1
ID : 2
Format : AC-3
Format/Info : Audio Coding 3
Mode extension : CM (complete main)
Format settings, Endianness : Big
Codec ID : A_AC3
Duration : 2h 13mn
Bit rate mode : Constant
Bit rate : 192 Kbps
Channel count : 2 channels
Channel positions : Front: L R
Sampling rate : 48.0 KHz
Bit depth : 16 bits
Compression mode : Lossy
Stream size : 184 MiB (4%)
Title : Багатоголосий | Телеканал 1+1
Language : Ukrainian
Default : Yes
Forced : No

Audio #2
ID : 3
Format : AC-3
Format/Info : Audio Coding 3
Mode extension : CM (complete main)
Format settings, Endianness : Big
Codec ID : A_AC3
Duration : 2h 13mn
Bit rate mode : Constant
Bit rate : 192 Kbps
Channel count : 2 channels
Channel positions : Front: L R
Sampling rate : 48.0 KHz
Bit depth : 16 bits
Compression mode : Lossy
Stream size : 184 MiB (4%)
Title : Багатоголосий | Телеканал ICTV
Language : Ukrainian
Default : No
Forced : No

Audio #3
ID : 4
Format :
Format/Info : Advanced Audio Codec
Format profile : LC
Codec ID : A_AAC
Duration : 2h 13mn
Channel count : 2 channels
Channel positions : Front: L R
Sampling rate : 48.0 KHz
Compression mode : Lossy
Title : Оригінал
Language : English
Default : No
Forced : No

Text
ID : 5
Format : UTF-8
Codec ID : S_TEXT/UTF8
Codec ID/Info : UTF-8 Plain Text
Language : English
Default : No
Forced : No

Menu
00:00:00.000 : en:1. Opening Credits
00:02:43.000 : en:2. "How Could You Know This?"
00:06:15.000 : en:3. "Just Luck Is All"
00:10:33.000 : en:4. Jonesy's Accident
00:13:29.000 : en:5. "I Saw Duddits"
00:16:54.000 : en:6. Memory Warehouse
00:20:30.000 : en:7. Rescuing Duddits
00:26:14.000 : en:8. Rick McCarthy
00:30:22.000 : en:9. "The Blue Ribbon Baby"
00:34:33.000 : en:10. The Scout Accident
00:36:28.000 : en:11. Animal Exodus
00:40:28.000 : en:12. "Sit Tight, Buddy"
00:46:02.000 : en:13. The Weasel Attacks
00:49:38.000 : en:14. "What Do You Want?"
00:52:29.000 : en:15. Curtis and Owen
00:56:03.000 : en:16. The Curtis Line
00:57:23.000 : en:17. Pete and the Snowbank
00:59:44.000 : en:18. "I'll Never Drink Again"
01:04:08.000 : en:19. "You're Not Jonesy"
01:05:39.000 : en:20. The Line
01:08:04.000 : en:21. The Cabin Transformed
01:10:56.000 : en:22. Duddits' Gift
01:16:54.000 : en:23. Destroying the Ship
01:21:52.000 : en:24. "All Right... I'll Bite"
01:26:26.000 : en:25. Race Through the Warehouse
01:30:04.000 : en:26. Mind Probe
01:31:27.000 : en:27. "Except For the Dreams"
01:35:01.000 : en:28. "You've Got Two Problems"
01:37:23.000 : en:29. Jonesy Calling
01:40:51.000 : en:30. "Go Save the World"
01:44:24.000 : en:31. Making Himself at Home
01:46:58.000 : en:32. "Mr. Gray Wants Water"
01:50:00.000 : en:33. Quabbin Reservoir
01:53:27.000 : en:34. "So Long, Doctor"
01:56:30.000 : en:35. "Don't You Know Me, H?"
01:59:48.000 : en:36. "I Duddits!"
02:03:51.000 : en:37. End Credits
02:08:05.000 : en:38. Meeting Josie
Скріншоти










Особлива подяка пану Тирік за постер.

Джерело: &
Особиста оцінка: 0 - не дивився


 Трекер:    Зареєстрований   

Завантажити / скачати фільм українською



відео для новачків



 Зареєстрований:   2014-02-05 21:11
 Розмір:   4.3 GB 
 Оцінка фільму:   8.1/10 (Голосів: 15)
   
Інші релізи
   Ловець снів / Dreamcatcher (2003) 2xUkr/Eng Arsenfpu  2 / 0   2.37 GB   2016-01-01 20:24 
Харків"янин 
Свій


З нами з: 11.12.13
Востаннє: 17.09.16
Повідомлень: 142

2014-02-06 06:50  
якщо чесно, то це треш
SHEVA1991 
Поважний учасник


З нами з: 29.11.12
Востаннє: 03.12.16
Повідомлень: 200

2014-02-06 09:59  
Один з улюблених фільмів за романами Стівена Кінга! Дякую
boroznaya 
VIP


З нами з: 02.11.12
Востаннє: 04.12.16
Повідомлень: 1868

2016-02-01 22:31  
Варто оновити реліз, блюрик вже давно вийшов!
Ua.bos_01 
VIP


З нами з: 22.06.15
Востаннє: 03.12.16
Повідомлень: 1290

2016-02-15 10:31  
Цікавий фільм. Дуже вдала вийшла екранізація. Особливо приємно вразив чудовий підбір акторів та їхня професійна гра. Загалом фільми такого типажу мені дуже подобаються. Раджу до перегляду.
Ваш часовий пояс: GMT + 2 Години

Нова тема   Відповісти