Завантажити та скачати торренти українською


Вулиці у вогні / Вулиці вогню / Streets of Fire (1984) 1080p 3xUkr/Eng

Нові коментарі

Нова тема   Відповісти
Автор Повідомлення
BOOGud 
VIP


З нами з: 06.03.12
Востаннє: 11.11.16
Повідомлень: 907

2014-02-04 20:26  
Вулиці у вогні / Вулиці вогню / Streets of Fire (1984) 1080p 3xUkr/Eng

Вулиці у вогні / Вулиці вогню / Streets of Fire (1984) 1080p 3xUkr/Eng


багацько інших постерів
















































Жанр: екшн, кримінальний, драма
Країна: США



Кінокомпанія: RKO Pictures, Universal Pictures
Режисер: Волтер Гілл (Walter Hill)
Актори: Майкл Паре (Michael Pare), Даян Лейн (Diane Lane), Рік Мораніс (Rick Moranis), Емі Мадіґан (Amy Madigan), Віллям Дефо (Willem Dafoe) та інші.

Сюжет:
Цей фільм ще називають рок-н-рольним бойовиком чи рок-н-рольною казкою, або ж міським вестерном. І всі ці умовні визначення мають під собою ґрунт. Картина славна і культова, свого часу достатньо новаторська... Про що йдеться? Рок-н-рольну співачку викрадає банда мотоциклістів. Її колишній хлопець повертається до міста і береться врятувати кохану від наруги. А дія точиться у досить дивному кінематографічному світі, що той перебуває ніби в міжчассі...


Тривалість: 01:33:53
Якість:
Відео:
кодек:
розмір кадру: 1 920 x 1 040
бітрейт: 9 369 кб/с

Аудіо # 1:
мова: українська
переклад: багатоголосий закадровий | ICTV
кодек: 2.0
бітрейт: 192 кб/с
на проміжку 01:19:45-01:29:29 вставка озвучки з каналу "Україна".
Аудіо # 2:
мова: українська
переклад: двоголосий закадровий | 1+1
кодек: 2.0
бітрейт: 192 кб/с

Аудіо # 3:
мова: українська
переклад: багатоголосий закадровий | "Так Треба Продакшн"
кодек: 2.0
бітрейт: 192 кб/с

Аудіо # 4:
мова: англійська
переклад: оригінал
кодек: 5.1
бітрейт: 640 кб/с

Джерело озвучення:

ICTV

1+1

"Так Треба Продакшн" на замовлення

Субтитри:
мова: англійська
тип: програмні (м'які)
формат: *.srt

Субтитри:
мова: французька
тип: програмні (м'які)
формат: *.srt



Streets of Fire - Nowhere Fast


MediaInfo
General
Unique ID : 238723266354118271013837289698398216413 (0xB3986DBFE5132210B00BDF671892A0DD)
Complete name : I:\!!!720p\!2160\Streets.of.Fire.(1984).[3xUKR,ENG].HDDVDRip1080p.mkv
Format : Matroska
Format version : Version 4 / Version 2
File size : 6.93 GiB
Duration : 1h 33mn
Overall bit rate : 10.6 Mbps
Encoded date : UTC 2014-02-04 17:05:02
Writing application : mkvmerge v6.6.0 ('The Edge Of The In Between') built on Dec 1 2013 17:55:00
Writing library : libebml v1.3.0 + libmatroska v1.4.1

Video
ID : 1
Format : AVC
Format/Info : Advanced Video Codec
Format profile : [email protected]
Format settings, CABAC : Yes
Format settings, ReFrames : 4 frames
Codec ID : V_MPEG4/ISO/AVC
Duration : 1h 33mn
Bit rate : 9 369 Kbps
Width : 1 920 pixels
Height : 1 040 pixels
Display aspect ratio : 1.85:1
Frame rate mode : Constant
Frame rate : 23.976 fps
Color space : YUV
Chroma subsampling : 4:2:0
Bit depth : 8 bits
Scan type : Progressive
Bits/(Pixel*Frame) : 0.196
Stream size : 5.99 GiB (87%)
Title : VIDEO
Writing library : core 88 r1471 1144615
Encoding settings : cabac=1 / ref=4 / deblock=1:0:0 / analyse=0x3:0x133 / me=umh / subme=8 / psy=1 / psy_rd=1.00:0.00 / mixed_ref=1 / me_range=16 / chroma_me=1 / trellis=1 / 8x8dct=1 / cqm=0 / deadzone=21,11 / fast_pskip=0 / chroma_qp_offset=-2 / threads=12 / sliced_threads=0 / nr=0 / decimate=1 / mbaff=0 / constrained_intra=0 / bframes=3 / b_pyramid=2 / b_adapt=1 / b_bias=0 / direct=1 / wpredb=1 / wpredp=2 / keyint=250 / keyint_min=25 / scenecut=40 / intra_refresh=0 / rc_lookahead=40 / rc=2pass / mbtree=1 / bitrate=9369 / ratetol=1.0 / qcomp=0.60 / qpmin=10 / qpmax=51 / qpstep=4 / cplxblur=20.0 / qblur=0.5 / ip_ratio=1.40 / aq=1:1.00
Language : English
Default : No
Forced : No

Audio #1
ID : 2
Format : AC-3
Format/Info : Audio Coding 3
Mode extension : CM (complete main)
Format settings, Endianness : Big
Codec ID : A_AC3
Duration : 1h 33mn
Bit rate mode : Constant
Bit rate : 192 Kbps
Channel count : 2 channels
Channel positions : Front: L R
Sampling rate : 48.0 KHz
Bit depth : 16 bits
Compression mode : Lossy
Stream size : 129 MiB (2%)
Title : [ukr]ICTV(2009)
Language : Ukrainian
Default : Yes
Forced : No

Audio #2
ID : 3
Format : AC-3
Format/Info : Audio Coding 3
Mode extension : CM (complete main)
Format settings, Endianness : Big
Codec ID : A_AC3
Duration : 1h 33mn
Bit rate mode : Constant
Bit rate : 192 Kbps
Channel count : 2 channels
Channel positions : Front: L R
Sampling rate : 48.0 KHz
Bit depth : 16 bits
Compression mode : Lossy
Stream size : 129 MiB (2%)
Title : [ukr]1+1(2007)
Language : Ukrainian
Default : No
Forced : No

Audio #3
ID : 4
Format : AC-3
Format/Info : Audio Coding 3
Mode extension : CM (complete main)
Format settings, Endianness : Big
Codec ID : A_AC3
Duration : 1h 33mn
Bit rate mode : Constant
Bit rate : 192 Kbps
Channel count : 2 channels
Channel positions : Front: L R
Sampling rate : 48.0 KHz
Bit depth : 16 bits
Compression mode : Lossy
Stream size : 129 MiB (2%)
Title : [ukr]TTP(2012)
Language : Ukrainian
Default : No
Forced : No

Audio #4
ID : 5
Format : AC-3
Format/Info : Audio Coding 3
Mode extension : CM (complete main)
Format settings, Endianness : Big
Codec ID : A_AC3
Duration : 1h 33mn
Bit rate mode : Constant
Bit rate : 640 Kbps
Channel count : 6 channels
Channel positions : Front: L C R, Side: L R, LFE
Sampling rate : 48.0 KHz
Bit depth : 16 bits
Compression mode : Lossy
Stream size : 430 MiB (6%)
Title : [ENG]5.1
Language : English
Default : No
Forced : No

Text #1
ID : 6
Format : UTF-8
Codec ID : S_TEXT/UTF8
Codec ID/Info : UTF-8 Plain Text
Title : eng
Language : English
Default : No
Forced : No

Text #2
ID : 7
Format : UTF-8
Codec ID : S_TEXT/UTF8
Codec ID/Info : UTF-8 Plain Text
Title : fre
Language : French
Default : No
Forced : No

Menu
00:00:00.000 : en:A Rock and Roll Fable
00:01:48.450 : en:Ellen Aim and the Attackers ('Nowhere Fast')
00:06:21.250 : en:Kidnap
00:08:43.000 : en:A Telex to Tom
00:11:27.283 : en:The Road Masters Are Hungry
00:16:45.416 : en:McCoy
00:26:05.916 : en:The Road to the Battery
00:28:51.950 : en:'One Bad Stud'
00:31:03.700 : en:The Rescue
00:40:05.950 : en:Escape from the Battery
00:55:02.500 : en:Road Block
01:00:30.283 : en:Back to the Richmond
01:13:10.450 : en:Rumble
01:20:04.783 : en:'I Can Dream About You'
01:24:16.533 : en:'Tonight Is What It Means To Be Young'
01:28:31.000 : en:Cody's Big Chance (End Titles)
Скріншоти







































































































Подяка:


Пану ProgBassing за надану сиру доріжку №1.
пану Hulk1987 за надану сиру доріжку №2.
та пану karvai0 і пані olgaya за надану сиру доріжку №3.

HD зібрав BOOGud

Джерело: cinemageddon.net & toloka.to

Особиста оцінка: 10 - без зайвих вагань рекомендую всім!


Срібний реліз (на рейтинг впливає 50% завантаженого)
 Трекер:    Зареєстрований   

Завантажити / скачати фільм українською



відео для новачків



 Зареєстрований:   2014-02-04 22:14
 Розмір:   6.93 GB 
 Оцінка фільму:   10/10 (Голосів: 2)
   
bot 
робот


З нами з: 30.09.07
Востаннє: 26.05.05
Повідомлень: 16002

2014-02-04 20:26  
Тему перенесено з Фільми в HD до форуму Анонси релізів


BOOGud

bot 
робот


З нами з: 30.09.07
Востаннє: 26.05.05
Повідомлень: 16002

2014-02-04 22:14  
Тему перенесено з Анонси релізів до форуму Фільми в HD


BOOGud

BMK12 
Відео Гуртом - підтримка та поширення
Відео Гуртом - підтримка та поширення


З нами з: 13.04.09
Востаннє: 05.12.16
Повідомлень: 2985

2014-02-04 22:56  
Прикольний лістинг скріншотів - такий собі коротенький опис сюжету Wide grin .
BOOGud 
VIP


З нами з: 06.03.12
Востаннє: 11.11.16
Повідомлень: 907

2014-02-04 22:58  
BMK12 написано:
Прикольний лістинг скріншотів - такий собі коротенький опис сюжету

аж ніяк, тут я навіть до половини фільму не дійшов)

BMK12 
Відео Гуртом - підтримка та поширення
Відео Гуртом - підтримка та поширення


З нами з: 13.04.09
Востаннє: 05.12.16
Повідомлень: 2985

2014-02-05 08:34  
BOOGud
Так я ж кажу, що "коротенький"))

Ваш часовий пояс: GMT + 2 Години

Нова тема   Відповісти