Завантажити та скачати торренти українською


Керрі / Carrie (2013) 720p mini Ukr/Eng | Sub Ukr/Eng

Нові коментарі

Нова тема   Відповісти
Автор Повідомлення
NeetScrool 
Відео Гуртом - фільмокрай
Відео Гуртом - фільмокрай


З нами з: 10.01.13
Востаннє: 05.12.16
Повідомлень: 2214

2014-02-04 19:38  
[19:35:48] Insensitivity:
Керрі / Carrie (2013) 720p-mini Ukr/Eng | Sub Ukr/Eng

Керрі / Carrie (2013) 720p mini Ukr/Eng | Sub Ukr/Eng


Жанр: драма, жахи
Країна: США



Кінокомпанія: Metro-Goldwyn-Mayer (MGM), Screen Gems, Misher Films
Режисер: Кімберлі Пірс
Актори: Хлоя Ґрейс Морец, Джуді Ґрір, Джуліана Мур, Енсел Ельґорт, Ґабріела Вайлд, Алекс Расселл, Портія Даблдей, Мішель Нолден, Скайлер Векслер, Конор Прайс та інші.

Прем’єра (у світі): 7.10.2013
Прем’єра (в Україні): 28.11.2013

Бюджет: $30 000 000
Збори: $82,716,354

Сюжет:
За мотивами парапсихічного роману Стівена Кінґа «Керрі». Такі, як Керрі, часто стають мішенню для злих жартів однокласників - тиха, скромна, трохи незграбна неприваблива пуританка. Але вона зовсім не така беззахисна, як здається. З дитинства дівчина наділена даром телекінезу. Тож коли ровесники готували черговий злий жарт, вони навіть не підозрювали, що покарання буде набагато страшнішим, ніж можна уявити.


Тривалість: 01:40:00
Якість: by Sensetivity
Відео:
кодек:
розмір кадру: 1280 х 544
бітрейт: ~ 2 570 кб/с

Аудіо # 1:
мова: українська
переклад: професійний дубльований
кодек: 5.1
бітрейт: 448 кб/с

Аудіо # 2:
мова: англійська
переклад: оригінал
кодек: 5.1
бітрейт: 448 кб/с

Джерело озвучення:


Субтитри:
мова: українська (Форсовані та повні) / англійська (повні)
тип: програмні (м'які)
формат: *.srt
log

...first pass...

avs4x264.exe: -L x264_64.exe --pass 1 --bitrate 2570 --preset slow --profile high --level 5.0 --ref 16 --deblock -1:-1 --merange 20 --bframes 10 --qpmax 50 --qpstep 6 --psy-rd 1.00:0.10 --qcomp 0.65 --subme 9 --min-keyint 23 --keyint 200 --sar 1:1 --stats "E:\Temp\0074.log" --output NUL "E:\Temp\0074.avs"

raw [info]: 1280x544p 1:1 @ 24000/1001 fps (cfr)
[info]: using SAR=1/1
[info]: using cpu capabilities: MMX2 SSE2Fast SSSE3 SSE4.2 AVX
[info]: profile Main, level 5.0

[info]: frame I:1367 Avg QP:14.52 size: 95920
[info]: frame P:30888 Avg QP:17.81 size: 27045
[info]: frame B:111151 Avg QP:19.20 size: 8477
[info]: consecutive B-frames: 2.4% 2.7% 9.5% 15.1% 16.8% 43.2% 5.2% 1.4% 1.3% 1.3% 1.2%
[info]: mb I I16..4: 32.1% 0.0% 67.9%
[info]: mb P I16..4: 33.2% 0.0% 0.0% P16..4: 52.4% 0.0% 0.0% 0.0% 0.0% skip:14.4%
[info]: mb B I16..4: 7.2% 0.0% 0.0% B16..8: 29.0% 0.0% 0.0% direct:17.8% skip:46.0% L0:33.3% L1:40.3% BI:26.4%
[info]: final ratefactor: 18.00
[info]: direct mvs spatial:99.7% temporal:0.3%
[info]: coded y,uvDC,uvAC intra: 59.3% 57.0% 31.5% inter: 18.6% 18.0% 1.2%
[info]: i16 v,h,dc,p: 35% 19% 31% 15%
[info]: i4 v,h,dc,ddl,ddr,vr,hd,vl,hu: 20% 16% 16% 8% 8% 9% 8% 8% 8%
[info]: i8c dc,h,v,p: 58% 16% 21% 5%
[info]: Weighted P-Frames: Y:3.6% UV:2.6%
[info]: kb/s:2552.91

[total]: encoded 143406 frames, 8.42 fps, 2552.91 kb/s

...last pass...

avs4x264.exe: -L x264_64.exe --pass 2 --bitrate 2570 --preset slow --profile high --level 5.0 --ref 16 --deblock -1:-1 --merange 20 --bframes 10 --qpmax 50 --qpstep 6 --psy-rd 1.00:0.10 --qcomp 0.65 --subme 9 --min-keyint 23 --keyint 200 --sar 1:1 --stats "E:\Temp\0074.log" --output "E:\Temp\0074.264" "E:\Temp\0074.avs"

raw [info]: 1280x544p 1:1 @ 24000/1001 fps (cfr)
[info]: using SAR=1/1
[info]: using cpu capabilities: MMX2 SSE2Fast SSSE3 SSE4.2 AVX
[info]: profile High, level 5.0

[info]: frame I:1367 Avg QP:15.31 size:106281
[info]: frame P:30888 Avg QP:18.39 size: 26532
[info]: frame B:111151 Avg QP:20.01 size: 8580
[info]: consecutive B-frames: 2.4% 2.7% 9.5% 15.1% 16.8% 43.2% 5.2% 1.4% 1.3% 1.3% 1.2%
[info]: mb I I16..4: 11.8% 70.6% 17.6%
[info]: mb P I16..4: 1.8% 7.3% 1.7% P16..4: 41.2% 22.6% 14.4% 0.0% 0.0% skip:11.1%
[info]: mb B I16..4: 0.1% 0.6% 0.2% B16..8: 45.5% 8.6% 2.2% direct: 3.4% skip:39.5% L0:46.2% L1:48.5% BI: 5.4%
[info]: 8x8 transform intra:68.8% inter:73.6%
[info]: direct mvs spatial:98.1% temporal:1.9%
[info]: coded y,uvDC,uvAC intra: 83.9% 81.9% 62.4% inter: 23.8% 23.3% 3.5%
[info]: i16 v,h,dc,p: 35% 13% 8% 44%
[info]: i8 v,h,dc,ddl,ddr,vr,hd,vl,hu: 8% 6% 2% 11% 17% 16% 15% 13% 12%
[info]: i4 v,h,dc,ddl,ddr,vr,hd,vl,hu: 8% 6% 2% 11% 17% 16% 15% 12% 14%
[info]: i8c dc,h,v,p: 45% 20% 18% 17%
[info]: Weighted P-Frames: Y:3.6% UV:2.6%
[info]: ref P L0: 47.5% 9.4% 17.0% 6.2% 4.8% 3.6% 3.0% 1.5% 1.6% 1.1% 1.0% 0.8% 0.7% 0.6% 0.6% 0.5%
[info]: ref B L0: 69.9% 12.6% 6.0% 2.9% 2.0% 1.8% 1.5% 1.0% 0.6% 0.5% 0.4% 0.3% 0.3% 0.2% 0.1%
[info]: ref B L1: 91.1% 8.9%
[info]: kb/s:2566.04

[total]: encoded 143406 frames, 3.86 fps, 2566.04 kb/s
MediaInfo

General
Unique ID : 241474466434029578406704815202988060300 (0xB5AA4A62DCD01B64B4771C86893DEE8C)
Complete name : E:\RIP\Carrie (2013) 720p-mini [Ukr.Eng] [Hurtom].mkv
Format : Matroska
Format version : Version 4 / Version 2
File size : 2.41 GiB
Duration : 1h 39mn
Overall bit rate : 3 465 Kbps
Movie name : Керрі / Carrie (2013) | Hurtom.com
Encoded date : UTC 2014-02-04 16:59:30
Writing application : mkvmerge v6.6.0 ('The Edge Of The In Between') built on Dec 1 2013 17:55:00
Writing library : libebml v1.3.0 + libmatroska v1.4.1
Attachment : Yes

Video
ID : 1
Format : AVC
Format/Info : Advanced Video Codec
Format profile : [email protected]
Format settings, CABAC : Yes
Format settings, ReFrames : 16 frames
Codec ID : V_MPEG4/ISO/AVC
Duration : 1h 39mn
Bit rate : 2 570 Kbps
Width : 1 280 pixels
Height : 544 pixels
Display aspect ratio : 2.35:1
Frame rate mode : Constant
Frame rate : 23.976 fps
Color space : YUV
Chroma subsampling : 4:2:0
Bit depth : 8 bits
Scan type : Progressive
Bits/(Pixel*Frame) : 0.154
Stream size : 1.74 GiB (72%)
Title : mini by Sensetivity
Writing library : core 130 r2273 b3065e6
Encoding settings : cabac=1 / ref=16 / deblock=1:-1:-1 / analyse=0x3:0x113 / me=umh / subme=9 / psy=1 / psy_rd=1.00:0.10 / mixed_ref=1 / me_range=20 / chroma_me=1 / trellis=1 / 8x8dct=1 / cqm=0 / deadzone=21,11 / fast_pskip=1 / chroma_qp_offset=-3 / threads=6 / lookahead_threads=1 / sliced_threads=0 / nr=0 / decimate=1 / interlaced=0 / bluray_compat=0 / constrained_intra=0 / bframes=10 / b_pyramid=2 / b_adapt=2 / b_bias=0 / direct=3 / weightb=1 / open_gop=0 / weightp=2 / keyint=200 / keyint_min=23 / scenecut=40 / intra_refresh=0 / rc_lookahead=50 / rc=2pass / mbtree=1 / bitrate=2570 / ratetol=1.0 / qcomp=0.65 / qpmin=0 / qpmax=50 / qpstep=6 / cplxblur=20.0 / qblur=0.5 / ip_ratio=1.40 / aq=1:1.00
Language : English
Default : Yes
Forced : No

Audio #1
ID : 2
Format : AC-3
Format/Info : Audio Coding 3
Mode extension : CM (complete main)
Format settings, Endianness : Big
Codec ID : A_AC3
Duration : 1h 39mn
Bit rate mode : Constant
Bit rate : 448 Kbps
Channel count : 6 channels
Channel positions : Front: L C R, Side: L R, LFE
Sampling rate : 48.0 KHz
Bit depth : 16 bits
Compression mode : Lossy
Stream size : 319 MiB (13%)
Title : Дубляж
Language : Ukrainian
Default : Yes
Forced : No

Audio #2
ID : 3
Format : AC-3
Format/Info : Audio Coding 3
Mode extension : CM (complete main)
Format settings, Endianness : Big
Codec ID : A_AC3
Duration : 1h 39mn
Bit rate mode : Constant
Bit rate : 448 Kbps
Channel count : 6 channels
Channel positions : Front: L C R, Side: L R, LFE
Sampling rate : 48.0 KHz
Bit depth : 16 bits
Compression mode : Lossy
Stream size : 319 MiB (13%)
Title : Оригінал
Language : English
Default : No
Forced : No

Text #1
ID : 4
Format : UTF-8
Codec ID : S_TEXT/UTF8
Codec ID/Info : UTF-8 Plain Text
Title : Написи
Language : Ukrainian
Default : Yes
Forced : No

Text #2
ID : 5
Format : UTF-8
Codec ID : S_TEXT/UTF8
Codec ID/Info : UTF-8 Plain Text
Title : Повні
Language : Ukrainian
Default : No
Forced : No

Text #3
ID : 6
Format : UTF-8
Codec ID : S_TEXT/UTF8
Codec ID/Info : UTF-8 Plain Text
Title : Повні
Language : English
Default : No
Forced : No
Скріншоти







Джерело:
Особиста оцінка: 0 - не дивився


 Трекер:    Зареєстрований   

Завантажити / скачати фільм українською



відео для новачків



 Зареєстрований:   2014-02-04 19:38
 Розмір:   2.41 GB 
 Оцінка фільму:   8.6/10 (Голосів: 14)
   
Інші релізи
   Керрі / Carrie (2013) AngryBirdsUA  4 / 0   1.45 GB   2014-02-07 17:57 
   Керрі / Carrie (2013) 720p Ukr/Eng | Sub Ukr/Eng NeetScrool  0 / 0   6.89 GB   2014-02-04 19:23 
   Керрі / Carrie (2013) 1080p Ukr/Eng | Sub Ukr/Eng 11FrYkT  2 / 0   7.63 GB   2014-02-04 11:33 
   Керрі / Carrie (2013) AVC Ukr/Eng | Sub Ukr/Eng 11FrYkT  2 / 0   2.19 GB   2014-02-04 10:19 
ksanka45 
Свій


З нами з: 04.06.11
Востаннє: 01.12.16
Повідомлень: 128

2014-06-18 21:17  
Дякую за реліз! Найкраще дивитися фільми в оригіналі з субтитрами)
Ваш часовий пояс: GMT + 2 Години

Нова тема   Відповісти