Завантажити та скачати торренти українською


Проповідник з кулеметом / Проповідник з автоматом / Machine Gun Preacher (2011) 720p Ukr/Eng | Sub Ukr/Eng

Нові коментарі

Нова тема   Відповісти
Останній раз роздавалося petrok13 (2016-12-08)
Автор Повідомлення
NeetScrool 
Відео Гуртом - фільмокрай
Відео Гуртом - фільмокрай


З нами з: 10.01.13
Востаннє: 08.12.16
Повідомлень: 2219

2014-02-03 20:20  
Проповідник з кулеметом / Проповідник з автоматом / Machine Gun Preacher (2011) 720p Ukr/Eng | Sub Ukr/Eng

Проповідник з кулеметом / Проповідник з автоматом / Machine Gun Preacher (2011) 720p Ukr/Eng | Sub Ukr/Eng

«Надія - найкраща зброя»


Жанр: бойовик, біографічний, драма
Країна: США



Кінокомпанія: Relativity Media, Virgin Produced, Apparatus Productions
Режисер: Марк Форстер (Marc Forster)
Актори: Джерард Батлер (Gerard Butler), Мішель Монаґан (Michelle Monaghan), Кеті Бейкер (Kathy Baker), Майкл Шеннон (Michael Shannon), Меделін Керол (Madeline Carroll) та інші.

Сюжет:
Це історія Сема Чайлдерса, колишнього байкера-наркоторговця, крутого хлопця, який повірив у Бога і став борцем за сотні суданських дітей, які змушені були стати солдатами.


Тривалість: 02:08:43
Якість:
Відео:
кодек:
розмір кадру: 1280x534
бітрейт: 8179 кб/с

Аудіо # 1:
мова: українська
переклад: двоголосий закадровий
кодек: 2.0
бітрейт: 192 кб/с
Запис: xslim
Зведення: Sensetivity

Аудіо # 2:
мова: англійська
переклад: оригінал
кодек: 5.1
бітрейт: 448 кб/с

Джерело озвучення:


Субтитри:
мова: українська
тип: програмні (м'які)
формат: *.srt
переклад з англійської: w2958l, Tarasyk, Mary_, Alinea

Субтитри:
мова: англійська
тип: програмні (м'які)
формат: *.srt
MediaInfo

General
Unique ID : 244982141550056036832735023350083070489 (0xB84DD81F2377E2A38C3FC001EED1AA19)
Complete name : E:\Довготривлі роздачі\Machine Gun Preacher (2011) [Ukr.Eng] 720p [Hurtom].mkv
Format : Matroska
Format version : Version 4 / Version 2
File size : 7.92 GiB
Duration : 2h 8mn
Overall bit rate : 8 812 Kbps
Movie name : Проповідник з кулеметом / Machine Gun Preacher (2011) 720p [Hurtom]
Encoded date : UTC 2014-02-04 08:02:56
Writing application : mkvmerge v6.6.0 ('The Edge Of The In Between') built on Dec 1 2013 17:55:00
Writing library : libebml v1.3.0 + libmatroska v1.4.1
Attachment : Yes

Video
ID : 1
Format : AVC
Format/Info : Advanced Video Codec
Format profile : [email protected]
Format settings, CABAC : Yes
Format settings, ReFrames : 12 frames
Codec ID : V_MPEG4/ISO/AVC
Duration : 2h 8mn
Bit rate : 8 179 Kbps
Width : 1 280 pixels
Height : 534 pixels
Display aspect ratio : 2.40:1
Frame rate mode : Constant
Frame rate : 24.000 fps
Color space : YUV
Chroma subsampling : 4:2:0
Bit depth : 8 bits
Scan type : Progressive
Bits/(Pixel*Frame) : 0.499
Stream size : 7.19 GiB (91%)
Title : by CHD
Writing library : core 120 r2146 bcd41db
Encoding settings : cabac=1 / ref=12 / deblock=1:-3:-3 / analyse=0x3:0x113 / me=umh / subme=10 / psy=1 / psy_rd=1.10:0.15 / mixed_ref=1 / me_range=32 / chroma_me=1 / trellis=2 / 8x8dct=1 / cqm=0 / deadzone=21,11 / fast_pskip=0 / chroma_qp_offset=-2 / threads=12 / sliced_threads=0 / nr=0 / decimate=1 / interlaced=0 / bluray_compat=0 / constrained_intra=0 / bframes=6 / b_pyramid=2 / b_adapt=2 / b_bias=0 / direct=3 / weightb=1 / open_gop=0 / weightp=2 / keyint=250 / keyint_min=24 / scenecut=40 / intra_refresh=0 / rc_lookahead=60 / rc=2pass / mbtree=0 / bitrate=8179 / ratetol=1.0 / qcomp=0.60 / qpmin=0 / qpmax=69 / qpstep=4 / cplxblur=20.0 / qblur=0.5 / vbv_maxrate=40000 / vbv_bufsize=30000 / nal_hrd=none / ip_ratio=1.40 / pb_ratio=1.30 / aq=1:0.80
Language : English
Default : Yes
Forced : No

Audio #1
ID : 2
Format : AC-3
Format/Info : Audio Coding 3
Mode extension : CM (complete main)
Format settings, Endianness : Big
Codec ID : A_AC3
Duration : 2h 8mn
Bit rate mode : Constant
Bit rate : 192 Kbps
Channel count : 2 channels
Channel positions : Front: L R
Sampling rate : 48.0 KHz
Bit depth : 16 bits
Compression mode : Lossy
Stream size : 177 MiB (2%)
Title : Телеканал 2+2
Language : Ukrainian
Default : Yes
Forced : No

Audio #2
ID : 3
Format : AC-3
Format/Info : Audio Coding 3
Mode extension : CM (complete main)
Format settings, Endianness : Big
Codec ID : A_AC3
Duration : 2h 8mn
Bit rate mode : Constant
Bit rate : 448 Kbps
Channel count : 6 channels
Channel positions : Front: L C R, Side: L R, LFE
Sampling rate : 48.0 KHz
Bit depth : 16 bits
Compression mode : Lossy
Stream size : 412 MiB (5%)
Title : Оригінал
Language : English
Default : No
Forced : No

Text #1
ID : 4
Format : UTF-8
Codec ID : S_TEXT/UTF8
Codec ID/Info : UTF-8 Plain Text
Title : Перекладачі: w2958l, Tarasyk, Mary_, Alinea
Language : Ukrainian
Default : No
Forced : No

Text #2
ID : 5
Format : UTF-8
Codec ID : S_TEXT/UTF8
Codec ID/Info : UTF-8 Plain Text
Language : English
Default : No
Forced : No
Скріншоти










Джерело:
Особиста оцінка: 8 - мені сподобалося


 Трекер:    Зареєстрований   

Завантажити / скачати фільм українською



відео для новачків



 Зареєстрований:   2014-02-04 10:16
 Розмір:   7.92 GB 
 Оцінка фільму:   8.5/10 (Голосів: 13)
   
bot 
робот


З нами з: 30.09.07
Востаннє: 26.05.05
Повідомлень: 16030

2014-02-04 10:16  
Тему перенесено з Пісочниця до форуму Фільми в HD


NeetScrool

patriot2305 
Почесний гуртомівець


З нами з: 23.04.11
Востаннє: 08.12.16
Повідомлень: 4145

2014-02-04 11:40  
Зроблю реліз в SD...
hellforces 
VIP


З нами з: 25.06.08
Востаннє: 11.11.16
Повідомлень: 1556

2014-02-04 21:25  
а коли зявиться ?
NeetScrool 
Відео Гуртом - фільмокрай
Відео Гуртом - фільмокрай


З нами з: 10.01.13
Востаннє: 08.12.16
Повідомлень: 2219

2014-02-04 22:03  
hellforces
Це ж він і є.

Х-Хед 
VIP


З нами з: 06.05.12
Востаннє: 12.11.16
Повідомлень: 297

2014-02-19 21:27  
Варто би зазначити, що цей фільм, типу, лише для хлопців з стальними нервами. Фільм не дасть нормально заснути, думаю, тиждень. Так само як і вчорашні події під Верховною зРадою. Звичайно поставив 10. Все документально і авторитетно.
Estranded 
VIP


З нами з: 09.02.14
Востаннє: 08.12.16
Повідомлень: 835

2015-01-20 11:31  
Встаньте на роздачу, будь ласка!
Tarasyk2Tarasyk2 
Новенький


З нами з: 27.03.16
Востаннє: 30.05.16
Повідомлень: 17

2016-04-24 16:02  
Послухайте Estranded , будь- ласка.
Ваш часовий пояс: GMT + 2 Години

Нова тема   Відповісти