Завантажити та скачати торренти українською


Астрал: Частина 2 / Insidious: Chapter 2 (2013) 720p-mini

Нові коментарі

Нова тема   Відповісти
Автор Повідомлення
Drool 
VIP


З нами з: 17.04.10
Востаннє: 02.12.16
Повідомлень: 1262

2014-02-01 21:16  
Астрал: Частина 2 / Insidious: Chapter 2 (2013) 720p-mini

Жанр: жахи, трилер
Країна: США



Кінокомпанія: Alliance Films, Blumhouse Productions, FilmDistrict, IM Global, Room 101
Режисер: Джеймс Ван
Актори: Патрік Уілсон, Роуз Бірн, Барбара Херші, Стів Култер, Ті Кіген Сімпкінс, Лі Воннел, Енгус Семпсон та інші.

Сюжет:
Сім'я Ламберт прагне розкрити таємницю, через яку вони опинилися в небезпечному зв'язку зі світом духів...


Тривалість: 01:45:52
Якість: 720p-mini
Відео:
кодек:
розмір кадру: 1280x536
бітрейт: 2598 кб/с

Аудіо:
мова: українська
переклад: професійний дубльований
кодек: 5.1
бітрейт: 384 кб/с

Джерело озвучення:
MediaInfo
General
Unique ID : 277062783177751755898042130462569538657 (0xD07059DF0CEB6395A2C0BD9CED562461)
Complete name : ./Insidious.Chapter.2.2013.Ukr.Dub..720p-mini.mkv
Format : Matroska
Format version : Version 4 / Version 2
File size : 2.25 GiB
Duration : 1h 45mn
Overall bit rate : 3 042 Kbps
Movie name : Астрал: Частина 2 / Insidious: Chapter 2 (2013) 720p | by -=LEONARDO=-
Encoded date : UTC 2010-02-22 21:41:31
Writing application : mkvmerge v6.1.0 ('Old Devil') built on Apr 14 2013 12:26:22
Writing library : libebml v1.3.0 + libmatroska v1.4.0

Video
ID : 1
Format : AVC
Format/Info : Advanced Video Codec
Format profile : [email protected]
Format settings, CABAC : Yes
Format settings, ReFrames : 9 frames
Codec ID : V_MPEG4/ISO/AVC
Duration : 1h 45mn
Bit rate : 2 598 Kbps
Width : 1 280 pixels
Height : 536 pixels
Display aspect ratio : 2.40:1
Frame rate : 23.976 fps
Color space : YUV
Chroma subsampling : 4:2:0
Bit depth : 8 bits
Scan type : Progressive
Bits/(Pixel*Frame) : 0.158
Stream size : 1.92 GiB (85%)
Title : Астрал: Частина 2 / Insidious: Chapter 2 (2013) 720p | by -=LEONARDO=-
Writing library : core 125 r2208 d9d2288
Encoding settings : cabac=1 / ref=9 / deblock=1:-3:-3 / analyse=0x3:0x133 / me=tesa / subme=11 / psy=1 / psy_rd=1.00:0.20 / mixed_ref=1 / me_range=48 / chroma_me=1 / trellis=2 / 8x8dct=1 / cqm=0 / deadzone=21,11 / fast_pskip=0 / chroma_qp_offset=-3 / threads=12 / lookahead_threads=2 / sliced_threads=0 / nr=0 / decimate=1 / interlaced=0 / bluray_compat=0 / constrained_intra=0 / bframes=12 / b_pyramid=2 / b_adapt=2 / b_bias=0 / direct=1 / weightb=1 / open_gop=0 / weightp=2 / keyint=250 / keyint_min=23 / scenecut=40 / intra_refresh=0 / rc=crf / mbtree=0 / crf=18.0 / qcomp=0.60 / qpmin=0 / qpmax=69 / qpstep=4 / ip_ratio=1.40 / pb_ratio=1.30 / aq=2:1.00
Default : Yes
Forced : No

Audio
ID : 2
Format : AC-3
Format/Info : Audio Coding 3
Mode extension : CM (complete main)
Codec ID : A_AC3
Duration : 1h 45mn
Bit rate mode : Constant
Bit rate : 384 Kbps
Channel(s) : 6 channels
Channel positions : Front: L C R, Side: L R, LFE
Sampling rate : 48.0 KHz
Bit depth : 16 bits
Compression mode : Lossy
Delay relative to video : 4s 400ms
Stream size : 291 MiB (13%)
Title : Рідна мова (дубляж DVD) [ 5.1 - 384 kbps]
Language : Ukrainian
Default : Yes
Forced : No
Скріншоти




Джерело:
Особиста оцінка: 8 - мені сподобалося


 Трекер:    Зареєстрований   

Завантажити / скачати фільм українською



відео для новачків



 Зареєстрований:   2014-02-04 00:37
 Розмір:   2.25 GB 
 Оцінка фільму:   8.3/10 (Голосів: 12)
   
Інші релізи
Drool 
VIP


З нами з: 17.04.10
Востаннє: 02.12.16
Повідомлень: 1262

2014-02-01 21:20  
Велика подяка пану lnkvisitor за надані технічні засоби та інтернет-канал Happy
datura 
Новенький


З нами з: 05.09.09
Востаннє: 02.12.16
Повідомлень: 15

2014-02-02 13:01  
у вас звук поспішає. пробував на різних програвачах - результат той самий
Drool 
VIP


З нами з: 17.04.10
Востаннє: 02.12.16
Повідомлень: 1262

2014-02-04 00:43  
datura написано:
у вас звук поспішає. пробував на різних програвачах - результат той самий

Дякую. Виправив розсинхрон. Хто вже скачав - необхідно виставити затримку звуку в 4400 мс.

trelxtrel 
VIP


З нами з: 15.12.10
Востаннє: 02.12.16
Повідомлень: 327

2014-03-11 15:25  
Продовження Астралу набагато слабше за оригінал! Вже не та напружена атмосфера, що в першій частині!

Могло бути і краще!

6,5/10

cmm965 
Свій


З нами з: 29.03.12
Востаннє: 29.11.16
Повідомлень: 100

2015-07-13 16:07  
Як на мене фільм нудний, 4/10
Ваш часовий пояс: GMT + 2 Години

Нова тема   Відповісти