Завантажити та скачати торренти українською


Втеча з в’язниці / The Escapist (2008) AVC Ukr/Eng | sub Eng

Нові коментарі

Нова тема   Відповісти
Автор Повідомлення
DеLight 
Відео Гуртом - фільмокрай
Відео Гуртом - фільмокрай


З нами з: 24.08.11
Востаннє: 17.11.16
Повідомлень: 664

2014-01-31 19:49  
Втеча з в’язниці / The Escapist (2008) AVC Ukr/Eng | sub Eng


Втеча з в’язниці / The Escapist (2008) AVC Ukr/Eng | sub Eng

«5 men. 4 walls. 1 plan»


Жанр: драма, кримінальний, трилер
Країна: Велика Британія, Ірландія



Кінокомпанія: Irish Film Board, Parallel Film Productions Ltd., Picture Farm
Режисер: Руперт Ваят / Rupert Wyatt
Актори: Браян Кокс / Brian Cox, Деміан Льюїс / Damian Lewis, Джозеф Файнс / Joseph Fiennes, Сеу Джордж / Seu Jorge, Ліам Каннінгем / Liam Cunningham, Домінік Купер / Dominic Cooper, Стівен Макінтош / Steven Mackintosh, Нед Деннегі / Ned Dennehy та інші

Сюжет:
Напевно, нікому не треба доводити, що життя у в’язниці - це суцільне пекло. Звичайно, і до нього можна спробувати пристосуватися - вибору все одно немає, залишається змиритися зі своєю участю. Особливо якщо суддя виніс вирок про довічне ув’язнення без права перегляду справи. Але Френк Перрі не бажає миритися з таким станом справ. За стіною у нього залишилася дочка, яка зараз смертельно хвора і дуже потребує допомоги. Заради дівчинки Френк готовий піти на все. І ось Перрі починає готувати план втечі.


Тривалість: 01:41:30
Якість: AVC

Відео:
кодек:
розмір кадру: 1024 x 552
бітрейт: 2 199 кб/с

Аудіо #1:
мова: українська
переклад: двоголосий закадровий | Михайло Жонін і Дмитро Завадський
кодек: 2.0
бітрейт: 192 кб/с

Аудіо #2:
мова: англійська
переклад: оригінал
кодек: 5.1
бітрейт: 448 кб/с

Субтитри #1:
мова: українська (форсовані)
тип: програмні (м'які)
формат: *.srt

Субтитри #2:
мова: англійська (повні)
тип: програмні (м'які)
формат: *.srt


HD Trailer


MediaInfo
Код:

General
Unique ID                      : 209519388722157638747537260081218850929 (0x9D9FF76A61224622949B4A6DD5981071)
Complete name                  : D:\Torrents\The Escapist (2008) AVC [ukr, eng] [Hurtom].mkv
Format                         : Matroska
Format version                 : Version 4 / Version 2
File size                      : 2.01 GiB
Duration                       : 1h 41mn
Overall bit rate               : 2 839 Kbps
Movie name                     : Hurtom.com
Encoded date                   : UTC 2014-01-29 22:15:29
Writing application            : mkvmerge v6.7.0 ('Back to the Ground') 64bit built on Jan  8 2014 15:10:52
Writing library                : libebml v1.3.0 + libmatroska v1.4.1

Video
ID                             : 1
Format                         : AVC
Format/Info                    : Advanced Video Codec
Format profile                 : [email protected]
Format settings, CABAC         : Yes
Format settings, ReFrames      : 8 frames
Codec ID                       : V_MPEG4/ISO/AVC
Duration                       : 1h 41mn
Bit rate                       : 2 199 Kbps
Width                          : 1 024 pixels
Height                         : 552 pixels
Display aspect ratio           : 1.85:1
Frame rate mode                : Constant
Frame rate                     : 24.000 fps
Color space                    : YUV
Chroma subsampling             : 4:2:0
Bit depth                      : 8 bits
Scan type                      : Progressive
Bits/(Pixel*Frame)             : 0.162
Stream size                    : 1.52 GiB (75%)
Title                          : Rip by Enigma
Writing library                : core 129 r2245 bc13772
Encoding settings              : cabac=1 / ref=8 / deblock=1:-2:-2 / analyse=0x3:0x133 / me=umh / subme=11 / psy=1 / psy_rd=1.00:0.00 / mixed_ref=1 / me_range=48 / chroma_me=1 / trellis=2 / 8x8dct=1 / cqm=0 / deadzone=21,11 / fast_pskip=0 / chroma_qp_offset=-2 / threads=3 / lookahead_threads=1 / sliced_threads=0 / nr=0 / decimate=0 / interlaced=0 / bluray_compat=0 / constrained_intra=0 / bframes=8 / b_pyramid=2 / b_adapt=2 / b_bias=0 / direct=3 / weightb=1 / open_gop=0 / weightp=2 / keyint=240 / keyint_min=23 / scenecut=40 / intra_refresh=0 / rc_lookahead=40 / rc=2pass / mbtree=1 / bitrate=2199 / ratetol=1.0 / qcomp=0.60 / qpmin=10 / qpmax=51 / qpstep=4 / cplxblur=20.0 / qblur=0.5 / ip_ratio=1.40 / aq=2:1.00
Language                       : English
Default                        : Yes
Forced                         : No

Audio #1
ID                             : 2
Format                         : AC-3
Format/Info                    : Audio Coding 3
Mode extension                 : CM (complete main)
Format settings, Endianness    : Big
Codec ID                       : A_AC3
Duration                       : 1h 41mn
Bit rate mode                  : Constant
Bit rate                       : 192 Kbps
Channel count                  : 2 channels
Channel positions              : Front: L R
Sampling rate                  : 48.0 KHz
Bit depth                      : 16 bits
Compression mode               : Lossy
Stream size                    : 139 MiB (7%)
Title                          : DVO [1+1]
Language                       : Ukrainian
Default                        : Yes
Forced                         : No

Audio #2
ID                             : 3
Format                         : AC-3
Format/Info                    : Audio Coding 3
Mode extension                 : CM (complete main)
Format settings, Endianness    : Big
Codec ID                       : A_AC3
Duration                       : 1h 41mn
Bit rate mode                  : Constant
Bit rate                       : 448 Kbps
Channel count                  : 6 channels
Channel positions              : Front: L C R, Side: L R, LFE
Sampling rate                  : 48.0 KHz
Bit depth                      : 16 bits
Compression mode               : Lossy
Stream size                    : 325 MiB (16%)
Title                          : Original
Language                       : English
Default                        : No
Forced                         : No

Text #1
ID                             : 4
Format                         : UTF-8
Codec ID                       : S_TEXT/UTF8
Codec ID/Info                  : UTF-8 Plain Text
Title                          : Forced
Language                       : Ukrainian
Default                        : Yes
Forced                         : No

Text #2
ID                             : 5
Format                         : UTF-8
Codec ID                       : S_TEXT/UTF8
Codec ID/Info                  : UTF-8 Plain Text
Title                          : Full
Language                       : English
Default                        : No
Forced                         : No

Скріншоти



































Джерело: | За запис з ТБ подяка dvorsky, за інформацію про озвучення - Віктору


 Трекер:    Зареєстрований   

Завантажити / скачати фільм українською



відео для новачків



 Зареєстрований:   2014-01-31 19:49
 Розмір:   2.01 GB 
 Оцінка фільму:   9.6/10 (Голосів: 18)
   
DеLight 
Відео Гуртом - фільмокрай
Відео Гуртом - фільмокрай


З нами з: 24.08.11
Востаннє: 17.11.16
Повідомлень: 664

2014-01-31 19:49  
У записі були дропи, реклами і ін., тому є кілька коротеньких фраз без перекладу, ~ 60 сек., на них зроблені субтитри українською.
hellforces 
VIP


З нами з: 25.06.08
Востаннє: 11.11.16
Повідомлень: 1556

2014-02-04 21:34  
звичайний буде?
DеLight 
Відео Гуртом - фільмокрай
Відео Гуртом - фільмокрай


З нами з: 24.08.11
Востаннє: 17.11.16
Повідомлень: 664

2014-02-04 22:02  
hellforces написано:
звичайний буде?

Від мене - ні.

ninenine 
Відео Гуртом - фільмокрай
Відео Гуртом - фільмокрай


З нами з: 23.10.09
Востаннє: 08.12.16
Повідомлень: 1147

2014-02-14 13:43  
Цікавий фільм, без знаменитих акторів, без лишніх наворотів, ну кінцівка можна сказати трохи не сподівана, міцний середняк у такому жанрі, раджу для перегляду 7 з 10.
Гонта 
Свій


З нами з: 16.12.09
Востаннє: 07.12.16
Повідомлень: 92

2015-07-19 23:31  
Надзвичайно сильний фільм! Дякую за реліз!!!
Ваш часовий пояс: GMT + 2 Години

Нова тема   Відповісти