Завантажити та скачати торренти українською


Росомаха / The Wolverine (2013) 720p Ukr/Eng | Sub Ukr/2xEng (MIC)

Нові коментарі

Нова тема   Відповісти
Автор Повідомлення
Zeus62 
Відео Гуртом - команда HD
Відео Гуртом - команда HD


З нами з: 29.12.08
Востаннє: 16.11.16
Повідомлень: 330

2014-01-31 02:52  
Росомаха / The Wolverine (2013) 720p Ukr/Eng | Sub Ukr/2xEng (MIC)

Росомаха / The Wolverine (2013) 720p Ukr/Eng | Sub Ukr/2xEng (MIC)


Жанр: екшн, пригодницький, фантастика
Країна: Австралія, США



Кінокомпанія: Twentieth Century Fox Film Corporation, Marvel Entertainment, Dune Entertainment
Режисер: Джеймс Менґолд
Актори: Х'ю Джекман, Фамке Янссен, Вілл Юн Лі, Брайан Ті, Хіроюкі Санада та інші.

Сюжет:
Логан вирушає до Японії, де закохується в дочку голови клану Якудза. Заради любові Логану доведеться протистояти її батькові Сінґене, братові Самураю, найманці Гадюці та іншим небезпечним ворогам.


Тривалість: 02:06:08
Якість:
Відео:
кодек:
розмір кадру: 1280 х 534
бітрейт: 4500 кб/с

Аудіо # 1:
мова: українська
переклад: професійний дубльований | MIC
кодек: 5.1
бітрейт: 384 кб/с

Аудіо # 2:
мова: англійська
переклад: оригінал
кодек: 5.1
бітрейт: 384 кб/с

Субтитри # 1:
мова: українська [Full]
тип: програмні (м'які)
формат: *.srt

Субтитри # 2:
мова: англійська [Forced]
тип: програмні (м'які)
формат: *.srt

Субтитри # 3:
мова: англійська [Full]
тип: програмні (м'які)
формат: *.srt
MediaInfo:

File size : 4.63 GiB
Duration : 2h 6mn
Overall bit rate : 5 257 Kbps
Encoded date : UTC 2014-01-30 23:52:25
Writing application : mkvmerge v6.3.0 ('You can't stop me!') built on Jun 29 2013 11:48:33
Writing library : libebml v1.3.0 + libmatroska v1.4.0

Video
ID : 1
Format : AVC
Format/Info : Advanced Video Codec
Format profile : [email protected]
Format settings, CABAC : Yes
Format settings, ReFrames : 9 frames
Codec ID : V_MPEG4/ISO/AVC
Duration : 2h 6mn
Bit rate : 4 500 Kbps
Width : 1 280 pixels
Height : 534 pixels
Display aspect ratio : 2.40:1
Frame rate mode : Constant
Frame rate : 23.976 fps
Color space : YUV
Chroma subsampling : 4:2:0
Bit depth : 8 bits
Scan type : Progressive
Bits/(Pixel*Frame) : 0.275
Stream size : 3.86 GiB (83%)
Title : For Hurtom by Zeus62
Writing library : core 130 r2273 b3065e6
Encoding settings : cabac=1 / ref=9 / deblock=1:-3:-3 / analyse=0x3:0x113 / me=umh / subme=11 / psy=1 / psy_rd=1,00:0,00 / mixed_ref=1 / me_range=64 / chroma_me=1 / trellis=2 / 8x8dct=1 / cqm=0 / deadzone=21,11 / fast_pskip=1 / chroma_qp_offset=-2 / threads=9 / lookahead_threads=1 / sliced_threads=0 / nr=0 / decimate=1 / interlaced=0 / bluray_compat=0 / constrained_intra=0 / bframes=9 / b_pyramid=2 / b_adapt=2 / b_bias=0 / direct=1 / weightb=1 / open_gop=0 / weightp=2 / keyint=240 / keyint_min=24 / scenecut=40 / intra_refresh=0 / rc_lookahead=50 / rc=2pass / mbtree=1 / bitrate=4500 / ratetol=1,0 / qcomp=0,60 / qpmin=0 / qpmax=69 / qpstep=4 / cplxblur=20,0 / qblur=0,5 / ip_ratio=1,40 / aq=1:1,00
Language : English
Default : Yes
Forced : No
Color primaries : BT.709
Transfer characteristics : BT.709
Matrix coefficients : BT.709

Audio #1
ID : 2
Format : AC-3
Format/Info : Audio Coding 3
Mode extension : CM (complete main)
Format settings, Endianness : Big
Codec ID : A_AC3
Duration : 2h 6mn
Bit rate mode : Constant
Bit rate : 384 Kbps
Channel count : 6 channels
Channel positions : Front: L C R, Side: L R, LFE
Sampling rate : 48.0 KHz
Bit depth : 16 bits
Compression mode : Lossy
Stream size : 346 MiB (7%)
Title : MIC
Language : Ukrainian
Default : Yes
Forced : No

Audio #2
ID : 3
Format : AC-3
Format/Info : Audio Coding 3
Mode extension : CM (complete main)
Format settings, Endianness : Big
Codec ID : A_AC3
Duration : 2h 6mn
Bit rate mode : Constant
Bit rate : 384 Kbps
Channel count : 6 channels
Channel positions : Front: L C R, Side: L R, LFE
Sampling rate : 48.0 KHz
Bit depth : 16 bits
Compression mode : Lossy
Stream size : 346 MiB (7%)
Language : English
Default : No
Forced : No

Text #1
ID : 4
Format : UTF-8
Codec ID : S_TEXT/UTF8
Codec ID/Info : UTF-8 Plain Text
Language : Ukrainian
Default : No
Forced : No

Text #2
ID : 5
Format : UTF-8
Codec ID : S_TEXT/UTF8
Codec ID/Info : UTF-8 Plain Text
Title : Forced
Language : English
Default : No
Forced : No

Text #3
ID : 6
Format : UTF-8
Codec ID : S_TEXT/UTF8
Codec ID/Info : UTF-8 Plain Text
Title : Full
Language : English
Default : No
Forced : No
log:

[info]: frame I:1642 Avg QP:11,70 size:143863 PSNR Mean Y:50,91 U:52,51 V:52,33 Avg:51,35 Global:50,84
[info]: frame P:46884 Avg QP:14,97 size: 45860 PSNR Mean Y:48,45 U:50,38 V:50,10 Avg:48,94 Global:48,17
[info]: frame B:132937 Avg QP:17,31 size: 13982 PSNR Mean Y:47,42 U:49,93 V:49,67 Avg:48,03 Global:47,29
[info]: consecutive B-frames: 5,1% 5,0% 13,9% 18,1% 18,4% 31,1% 5,2% 1,3% 1,0% 0,8%
[info]: mb I I16..4: 6,9% 68,4% 24,8%
[info]: mb P I16..4: 1,0% 12,5% 2,0% P16..4: 26,7% 35,6% 14,6% 0,0% 0,0% skip: 7,5%
[info]: mb B I16..4: 0,1% 1,6% 0,2% B16..8: 32,6% 23,7% 4,7% direct: 5,7% skip:31,4% L0:43,8% L1:42,0% BI:14,3%
[info]: 8x8 transform intra:79,2% inter:55,4%
[info]: coded y,uvDC,uvAC intra: 88,5% 90,4% 77,7% inter: 27,5% 24,2% 11,2%
[info]: i16 v,h,dc,p: 28% 20% 4% 48%
[info]: i8 v,h,dc,ddl,ddr,vr,hd,vl,hu: 12% 10% 7% 9% 12% 12% 12% 12% 13%
[info]: i4 v,h,dc,ddl,ddr,vr,hd,vl,hu: 16% 12% 7% 8% 13% 12% 12% 9% 11%
[info]: i8c dc,h,v,p: 43% 21% 18% 18%
[info]: Weighted P-Frames: Y:2,6% UV:1,3%
[info]: ref P L0: 47,1% 9,1% 18,1% 7,8% 5,7% 3,9% 3,7% 2,2% 2,0% 0,5% 0,0%
[info]: ref B L0: 71,7% 13,1% 6,1% 3,6% 2,2% 1,8% 1,1% 0,4%
[info]: ref B L1: 91,6% 8,4%
[info]: SSIM Mean Y:0,9886500 (19,450db)
[info]: PSNR Mean Y:47,715 U:50,072 V:49,807 Avg:48,298 Global:47,527 kb/s:4486,99
Скріншоти:




Джерело: +
Подяка legos25 - за запис.
Особиста оцінка: 10 - без зайвих вагань рекомендую всім!


 Трекер:    Зареєстрований   

Завантажити / скачати фільм українською



відео для новачків



 Зареєстрований:   2014-01-31 03:02
 Розмір:   4.63 GB 
 Оцінка фільму:   9.6/10 (Голосів: 40)
   
Інші релізи
patriot2305 
Почесний гуртомівець


З нами з: 23.04.11
Востаннє: 02.12.16
Повідомлень: 4145

2014-01-31 06:39  
Додайте ще семпл, бо тут мік...
Zeus62 
Відео Гуртом - команда HD
Відео Гуртом - команда HD


З нами з: 29.12.08
Востаннє: 16.11.16
Повідомлень: 330

2014-01-31 12:05  
patriot2305
Семпл додано.

NeetScrool 
Відео Гуртом - фільмокрай
Відео Гуртом - фільмокрай


З нами з: 10.01.13
Востаннє: 02.12.16
Повідомлень: 2203

2014-01-31 12:11  
Zeus62 написано:
Семпл додано.

Мік як мік =(

Zeus62 
Відео Гуртом - команда HD
Відео Гуртом - команда HD


З нами з: 29.12.08
Востаннє: 16.11.16
Повідомлень: 330

2014-01-31 13:09  
NeetScrool написано:
Мік як мік =(

А що ти очікував? Що я з такого запису зроблю ліцензійну доріжку?)

Sokil_V 
Новенький


З нами з: 01.09.11
Востаннє: 20.11.16
Повідомлень: 3

2014-03-11 22:28  
варто чекати ліцензійну доріжку? чи дивитись мік?
11FrYkT 
Модератор відео


З нами з: 20.02.11
Востаннє: 02.12.16
Повідомлень: 3060

2014-03-11 22:40  
Sokil_V , ДВД і Блур давно вийшли і ліцензії там немає
Teodor92 
Новенький


З нами з: 28.06.13
Востаннє: 28.11.15
Повідомлень: 1

2014-03-19 21:12  
наявні субтитри включають в собі переклад з японської?
Too Much 
Новенький


З нами з: 18.10.14
Востаннє: 30.11.16
Повідомлень: 23

2015-05-18 18:18  
Невже якісної доріжки не буде? Несправедливо - є ж ліцензія Днів минулого майбутнього, а вони вийшли після Росомахи.
MrRyanCooper 
VIP


З нами з: 23.08.12
Востаннє: 02.12.16
Повідомлень: 280

2015-07-13 20:56  
капець, я ось тільки надумав дивитися, бо ще не дивився і оце ідосі Міс?!! 2 роки минуло і нема норм звуку?ппц, хоча б Line.
Віктор 
Відео Гуртом - субтитрування
Відео Гуртом - субтитрування


З нами з: 09.01.10
Востаннє: 02.12.16
Повідомлень: 8661

2015-07-13 21:24  
MrRyanCooper написано:
ппц, хоча б Line.

Чого ж ви не записали хоча б line? А звернення у 20 століття http://toloka.to/t37400 писали? Чи знову ж таки лише на трекері можете висловити своє обурення, толку від якого 0.

MrRyanCooper 
VIP


З нами з: 23.08.12
Востаннє: 02.12.16
Повідомлень: 280

2015-07-16 18:27  
Віктор
Я писав на мило Джеймз Фіну чи як там його.

Purdun 
Свій


З нами з: 05.09.13
Востаннє: 29.08.16
Повідомлень: 82

2015-07-17 21:38  
І я писав, і ще написав з мила мого друга і 2-х подруг.
boroznaya 
VIP


З нами з: 02.11.12
Востаннє: 02.12.16
Повідомлень: 1868

2016-06-23 19:58  
Скажіть будь ласка, Mic якісний?
Ваш часовий пояс: GMT + 2 Години

Нова тема   Відповісти