Завантажити та скачати торренти українською


Голодні ігри: У вогні / The Hunger Games: Catching Fire (2013) [IMAX EDITION] 1080р Ukr/Eng

Нові коментарі

Нова тема   Відповісти
Останній раз роздавалося Байда Віктор (2016-12-10)
Автор Повідомлення
Sando7 
Відео Гуртом - запис з ТБ
Відео Гуртом - запис з ТБ


З нами з: 04.05.09
Востаннє: 10.12.16
Повідомлень: 841

2014-01-30 21:18  
Голодні ігри: У вогні / The Hunger Games: Catching Fire (2013) [IMAX EDITION] 1080р Ukr/Eng




Жанр: екшн, пригодницький, фантастика, трилер
Країна: США



Кінокомпанія: Color Force, Lionsgate
Режисер: Френціс Лоуренс / Francis Lawrence
Актори: Дженіфер Лоуренс / Jennifer Lawrence, Джош Гатчерсон / Josh Hutcherson, Сем Клафлін / Sam Claflin, Джена Мелоун / Jena Malone, Вуді Гарельсон / Woody Harrelson, Елізабет Бенкс / Elizabeth Banks, Ліам Гемсворт / Liam Hemsworth та інші

Сюжет:
Зумівши вижити на безжальних "Голодних іграх", Кетніс Евердін і Піта Мелано марно намагаються забути про те, що сталося з ними в Капітолії. Але президент Сноу, диктатор держави Панем, і його оточення не готові залишити дівчину і хлопця в спокої, вважаючи їх небезпечними.

Влада вирішує влаштувати показові Ігри, в яких візьмуть участь переможці минулих років від кожного дистрикту. Жереб кинуто: Кетніс і Піта змушені повернутися на Арену. Знову вони поглянуть в обличчя смерті - заради своїх близьких, заради свого майбутнього, заради своєї любові...


Тривалість: 02:26:14
Якість:
Відео:
кодек:
розмір кадру: 1920 x 1080
бітрейт: 9152 кб/с

Аудіо # 1:
мова: українська
переклад: професійний дубльований
кодек: 2.0
бітрейт: 192 кб/с

Аудіо # 2:
мова: англійська
переклад: оригінал
кодек: 5.1
бітрейт: 640 кб/с

Субтитри:
мова: англійська
тип: програмні (м'які)
формат: *.srt
MediaInfo

Complete name : D:\The Hunger Games. Catching Fire (2013) [IMAX] 1080p [UKR] [Hurtom].mkv
Format : Matroska
Format version : Version 1
File size : 10.2 GiB
Duration : 2h 26mn
Overall bit rate : 9 984 Kbps
Encoded date : UTC 2014-01-31 21:03:04
Writing application : mkvmerge v2.4.1 ('Use Me') built on Dec 5 2008 18:30:05
Writing library : libebml v0.7.7 + libmatroska v0.8.1

Video
ID : 1
Format : AVC
Format/Info : Advanced Video Codec
Format profile : [email protected]
Format settings, CABAC : Yes
Format settings, ReFrames : 4 frames
Codec ID : V_MPEG4/ISO/AVC
Duration : 2h 26mn
Bit rate : 9 152 Kbps
Width : 1 920 pixels
Height : 1 080 pixels
Display aspect ratio : 16:9
Frame rate mode : Constant
Frame rate : 23.976 fps
Color space : YUV
Chroma subsampling : 4:2:0
Bit depth : 8 bits
Scan type : Progressive
Bits/(Pixel*Frame) : 0.184
Stream size : 9.15 GiB (90%)
Title : The.Hunger.Games.Catching.Fire.2013
Writing library : core 138 r2356 a1d3d17
Encoding settings : cabac=1 / ref=4 / deblock=1:-3:-3 / analyse=0x3:0x113 / me=umh / subme=10 / psy=1 / psy_rd=1.00:0.05 / mixed_ref=1 / me_range=32 / chroma_me=1 / trellis=2 / 8x8dct=1 / cqm=0 / deadzone=21,11 / fast_pskip=0 / chroma_qp_offset=-2 / threads=18 / lookahead_threads=1 / sliced_threads=0 / nr=0 / decimate=1 / interlaced=0 / bluray_compat=0 / constrained_intra=0 / bframes=4 / b_pyramid=2 / b_adapt=2 / b_bias=0 / direct=3 / weightb=1 / open_gop=0 / weightp=2 / keyint=250 / keyint_min=23 / scenecut=40 / intra_refresh=0 / rc=2pass / mbtree=0 / bitrate=9152 / ratetol=1.0 / qcomp=0.70 / qpmin=0 / qpmax=69 / qpstep=4 / cplxblur=20.0 / qblur=0.5 / ip_ratio=1.40 / pb_ratio=1.30 / aq=2:1.00
Language : English
Default : Yes
Forced : No

Audio #1
ID : 2
Format : AC-3
Format/Info : Audio Coding 3
Mode extension : CM (complete main)
Format settings, Endianness : Big
Codec ID : A_AC3
Duration : 2h 26mn
Bit rate mode : Constant
Bit rate : 192 Kbps
Channel count : 2 channels
Channel positions : Front: L R
Sampling rate : 48.0 KHz
Bit depth : 16 bits
Compression mode : Lossy
Stream size : 201 MiB (2%)
Title : Ukr_Line
Language : Ukrainian
Default : Yes
Forced : No

Audio #2
ID : 3
Format : AC-3
Format/Info : Audio Coding 3
Mode extension : CM (complete main)
Format settings, Endianness : Big
Codec ID : A_AC3
Duration : 2h 26mn
Bit rate mode : Constant
Bit rate : 640 Kbps
Channel count : 6 channels
Channel positions : Front: L C R, Side: L R, LFE
Sampling rate : 48.0 KHz
Bit depth : 16 bits
Compression mode : Lossy
Stream size : 669 MiB (6%)
Title : English 5.1 640Kbps
Language : English
Default : No
Forced : No

Text #1
ID : 4
Format : UTF-8
Codec ID : S_TEXT/UTF8
Codec ID/Info : UTF-8 Plain Text
Language : English
Default : Yes
Forced : No

Text #2
ID : 5
Format : UTF-8
Codec ID : S_TEXT/UTF8
Codec ID/Info : UTF-8 Plain Text
Language : English
Default : No
Forced : No

Menu
00:00:00.000 : en:00:00:00.000
00:11:24.684 : en:00:11:24.684
00:16:48.049 : en:00:16:48.049
00:25:38.078 : en:00:25:38.078
00:35:51.649 : en:00:35:51.649
00:44:22.576 : en:00:44:22.576
00:52:12.921 : en:00:52:12.921
01:01:11.376 : en:01:01:11.376
01:08:12.213 : en:01:08:12.213
01:16:48.938 : en:01:16:48.938
01:22:39.663 : en:01:22:39.663
01:29:21.731 : en:01:29:21.731
01:40:43.913 : en:01:40:43.913
01:50:47.766 : en:01:50:47.766
02:02:46.984 : en:02:02:46.984
02:09:58.958 : en:02:09:58.958






Джерело: &
Особиста оцінка: 0 - не дивився


 Трекер:    Зареєстрований   

Завантажити / скачати фільм українською



відео для новачків



 Зареєстрований:   2014-01-31 23:16
 Розмір:   10.2 GB 
 Оцінка фільму:   9.3/10 (Голосів: 47)
   
Інші релізи
bot 
робот


З нами з: 30.09.07
Востаннє: 26.05.05
Повідомлень: 16050

2014-01-31 23:15  
Тему перенесено з Анонси релізів до форуму Фільми в HD


Sando7

mr.killer 
Свій


З нами з: 11.08.10
Востаннє: 08.12.16
Повідомлень: 146

2014-11-17 22:51  
дякую за реліз, дуже сподобалося
Patriot_ukr 
VIP


З нами з: 06.04.15
Востаннє: 09.12.16
Повідомлень: 492

2015-11-24 14:59  
Чому на одному скріншоті немає смуг, а на інших є?
umka1m 
Новенький


З нами з: 06.03.15
Востаннє: 10.12.16
Повідомлень: 10

2016-04-13 21:14  
Patriot_ukr написано:
Чому на одному скріншоті немає смуг, а на інших є?

відповідь на Ваше питання криється у назві роздачі
Цитата:
Голодні ігри: У вогні / The Hunger Games: Catching Fire (2013) [IMAX EDITION]

Аймекс сцени з іншим співвідношенням сторін більше наповнення кадру, від цього і немає смуг.

Ваш часовий пояс: GMT + 2 Години

Нова тема   Відповісти